Инна Ульянова. В любви я - Эйнштейн! (Михаил Ананьев) [2014, Документальный, биография, искусство, SATRip]


Статистика раздачи [Обновить пиров]
Размер:  495 MB   |    Зарегистрирован:  11 месяцев 27 дней   |    Скачан:  0 раз

Полного источника не было: Никогда

Личеров:  2  [  0 KB/s  ]   Подробная статистика пиров
 
   
 
 
 

[Цитировать]

Инна Ульянова. В любви я - Эйнштейн!
Дата/Год выпуска: 2014
Страна: Россия, ООО "Студия 8"
Жанр: Документальный, биография, искусство
Продолжительность: 00:39:51
Перевод: Не требуется
Русские субтитры: нет
Режиссер: Михаил Ананьев
Описание: Инна Ульянова сыграла в полусотне фильмов, но снималась в основном в эпизодах. Лучший из них - образ пьяной дамы с лисой в телесериале "Семнадцать мгновений весны". Именно по фразе "В любви я - Эйнштейн" ее запомнили многие телезрители. И поначалу узнавали только по этой роли. Однако в 1982 году она сыграла в "Покровских воротах" и стала безумно популярной. Ее Маргарита Павловна - образ, как говорится, на века. Попадание - точнее некуда. В отличие от киношной, ее театральная карьера складывалась неудачно. Ульянова обладала не только актерским даром, но и даром сводить мужчин с ума. На вопрос журналистов: "Похожи ли вы с Маргаритой Павловной?", отвечала: "Только в одном: ко мне тоже всегда притягивало мужчин слабых и безвольных, типа Хоботова". Инны Ивановны не стало 9 июня 2005 года. Квартира актрисы - в элитном по советским временам доме рядом со станцией метро "Фрунзенская" - стала объектом судебного разбирательства. Почему? И что довелось пережить любимой актрисе? В фильме принимали участие: актеры Вениамин Смехов, Александр Ширвиндт, Александр Яцко, Александр Панкратов-Черный, режиссеры Сергей Арцыбашев, Дмитрий Астрахан, соседи и подруги Инны Ульяновой.
качество: SATRip
формат: AVI
Видео: 704x448 (1.57:1), 25 fps, XviD build 50 ~1599 kbps avg, 0.20 bit/pixel
Аудио: 48 kHz, MPEG Layer 3, 2 ch, ~128.00 kbps avg

MediaInfo

Complete name : D:\Golubkina\Инна Ульянова.В любви я Эйнштейн.2014.SATRip.aviFormat : AVIFormat/Info : Audio Video InterleaveFile size : 495 MiBDuration : 39mn 51sOverall bit rate : 1 738 KbpsWriting application : VirtualDubMod 1.5.10.3 | www.virtualdub-fr.org || (build 2550/release)Writing library : VirtualDubMod build 2550/release
VideoID : 0Format : MPEG-4 VisualFormat profile : Advanced Simple@L5Format settings, BVOP : 2Format settings, QPel : NoFormat settings, GMC : No warppointsFormat settings, Matrix : Default (MPEG)Codec ID : XVIDCodec ID/Hint : XviDDuration : 39mn 51sBit rate : 1 600 KbpsWidth : 704 pixelsHeight : 448 pixelsDisplay aspect ratio : 1.571Frame rate : 25.000 fpsColor space : YUVChroma subsampling : 4:2:0Bit depth : 8 bitsScan type : ProgressiveCompression mode : LossyBits/(Pixel*Frame) : 0.203Stream size : 456 MiB (92%)Writing library : XviD 1.2.1 (UTC 2008-12-04)
AudioID : 1Format : MPEG AudioFormat version : Version 1Format profile : Layer 3Codec ID : 55Codec ID/Hint : MP3Duration : 39mn 51sBit rate mode : ConstantBit rate : 128 KbpsChannel(s) : 2 channelsSampling rate : 48.0 KHzCompression mode : LossyStream size : 36.5 MiB (7%)Alignment : Aligned on interleavesInterleave, duration : 40 ms (1.00 video frame)Interleave, preload duration : 504 msWriting library : LAME3.99rEncoding settings : -m s -V 4 -q 2 -lowpass 17 -b 128

Скриншоты

[teatrix.ru].t11536.torrent 
Торрент: Зарегистрирован [ 2015-12-07 17:45 ] · C6AE2962840A3134CCB6D1B4691EE56770D22C63

Скачать .torrent

Скачать

10 KB

Статус: проверено
Скачан: 0 раз
Размер: 495 MB
terms.php



Быстрый ответ

Имя:

      
Для отправки сообщений необходимо включить JavaScript
Показать сообщения:    

Текущее время: 04-Дек 11:12

Часовой пояс: UTC + 3


Вы можете начинать темы
Вы можете отвечать на сообщения
Вы не можете редактировать свои сообщения
Вы не можете удалять свои сообщения
Вы не можете голосовать в опросах
Вы не можете прикреплять файлы к сообщениям
Вы можете скачивать файлы