Встречи для вас: Василий Аксёнов, Виктор Павлов (2 выпуска) (Сергей Новиков, Эдуард Кольбус) [1993 - 1994, фильм-портрет, DVB]


Статистика раздачи [Обновить пиров]
Размер:  2.41 GB   |    Зарегистрирован:  11 месяцев   |    Скачан:  0 раз

Полного источника не было: Никогда

Личеров:  2  [  0 KB/s  ]   Подробная статистика пиров
 
   
 
 
 

[Цитировать]

Встречи для вас
Творчество при социализме- Год выпуска: 1993 - 1994
Страна: Россия
Жанр: фильм-портрет
Продолжительность: 01:22:57
Перевод: Не требуется
Русские субтитры: нет
Режиссер: Сергей Новиков, Эдуард КольбусОписание: Цикл передач "Встречи для вас" Студии литературно-художественных программ Телерадиокомпании "Останкино" выходил в эфир в 1993-1995 годах и предлагал телезрителям критический взгляд на будни только что ушедшей в небытие социалистической реальности. Это были встречи с творческими людьми: писателями, артистами театра, актерами кино, - рассказывавшими об искусстве сквозь призму социалистической идеологии.
Доп. информация: "Ностальгия" DVB-S.

качество: DVB
формат: MKV
Видео: MPEG Video 2, 720x576@768x576 (4:3), 25 fps, ~4771 kbps avg, 0.460 bit/pixel
Аудио: 48 kHz, MPEG Audio 2, 2 ch, ~192.00 kbps avg

Список выпусков/серий01. Василий Аксёнов (1993)

Продолжительность: 00:43:53
Описание: Фильм-портрет писателя Василия Аксёнова (1932-2009). В 1980 году Аксенов выехал по приглашению в США, и был лишён советского гражданства. Через десять лет он смог вернуться. По мнению Василия Павловича советская литература - существовала и не только в декретном порядке. Это балы реакция на появление литературного авангарда. Для него советская литература – это грандиозный китч. Писатель вспоминал как в свое время, во время оттепели, Илья Эренбург сказал, что нынешние дети, то есть писатели шестидесятники - смыкаются с дедами, а не с отцами. В передаче прозвучали страницы произведений Аксенова: "В поисках жанра", "Остров Крым", "В поисках грустного беби", "Ожог". Были использованы фрагменты фильмов: "Коллеги", "Сверстники мои".

Скриншоты

Резервные скриншоты

02. Виктор Павлов (1994)

Продолжительность: 00:39:04
Описание: Фильм-портрет актера Виктора Павлова (1940-2006). О своих работах в театре и кино актер рассказывает в беседе с режиссером Б. Морозовым. Использованы фрагменты художественных фильмов: "След на земле", "Место встречи изменить нельзя", "Строговы", "Адъютант его превосходительства", "На войне, как на войне"; спектаклей "Доходное место" и "Преступная мать" (репетиция, Государственный академический Малый театр), "Время и семья Конвей" (Московский театр имени М.Н. Ермоловой). Использованы фотографии из личного архива актера.

Скриншоты

Резервные скриншоты

MediaInfo

ОбщееУникальный идентификатор : 229892447888083781776048754295250599750 (0xACF3ACC8B62422D3B3F15B7F39EFBF46)Полное имя : E:\My Torrents 2\[apreder]Vstrechi_dlya_vas\01. Vasily_Aksyonov(1993)DVB.mkvФормат : MatroskaВерсия формата : Version 2Размер файла : 1,55 ГбайтПродолжительность : 43 м.Режим общего битрейта : ПеременныйОбщий поток : 5064 Кбит/секДата кодирования : UTC 2014-09-01 13:51:49Программа кодирования : mkvmerge v7.1.0 ('Good Love') 64bit built on Jul 27 2014 13:06:55Библиотека кодирования : libebml v1.3.0 + libmatroska v1.4.1
ВидеоИдентификатор : 1Формат : MPEG VideoВерсия формата : Version 2Профиль формата : Main@MainПараметр BVOP формата : НетПараметр матрицы формата : ВыборочнаяИдентификатор кодека : V_MPEG2Идентификатор кодека/Информация : MPEG 1 or 2 VideoПродолжительность : 43 м.Вид битрейта : ПеременныйБитрейт : 4771 Кбит/секШирина : 720 пикселейВысота : 576 пикселейСоотношение сторон : 4:3Режим частоты кадров : ПостоянныйЧастота кадров : 25,000 кадров/секСтандарт вещания : PALЦветовое пространство : YUVСубдискретизация насыщенности : 4:2:0Битовая глубина : 8 битТип развёртки : ЧересстрочнаяПорядок развёртки : Верхнее поле первоеМетод сжатия : С потерямиБит/(Пиксели*Кадры) : 0.460Временной код первого кадра : 00:00:00:00Оригинал временного кода : Group of pictures headerРазмер потока : 1,46 Гбайт (94%)Default : ДаForced : Нет
АудиоИдентификатор : 2Формат : MPEG AudioВерсия формата : Version 1Профиль формата : Layer 2Идентификатор кодека : A_MPEG/L2Идентификатор кодека/Подсказка : MP2Продолжительность : 43 м.Вид битрейта : ПостоянныйБитрейт : 192 Кбит/секКаналы : 2 каналаЧастота : 48,0 КГцМетод сжатия : С потерямиРазмер потока : 60,3 Мбайт (4%)Язык : RussianDefault : ДаForced : Нет

-

Внимание! Раздача ведётся путём добавления новых выпусков

Внимание! Раздача ведётся путём добавления новых выпусков; при каждом добавлении создаётся новый торрент. Чтобы начать докачку нового выпуска, пользователям необходимо сделать следующее:
(1) остановить скачивание,
(2) удалить старый торрент у себя из клиента (старые серии удалять не надо),
(3) скачать новый торрент и запустить его у себя в клиенте вместо старого, при этом указать клиенту путь в старую папку куда и должно происходить скачивание новых выпусков.
Ваш клиент при этом должен произвести хеширование (проверку) старой папки (если не производит сам - помогите ему сделать это). В результате он будет докачивать только те выпуски, которых у Вас ещё нет. Старые выпуски при этом не удаляются, а продолжают раздаваться!
Eсли Вы уже удалили старые выпуски, то предотвратить их повторную закачку можно, сняв галочки в соответствующих местах при запуске нового торрента. По возможности, желательно не удалять старые выпуски как можно дольше, чтобы релизёр не только продолжал раздавать старые выпуски, но и смог сконцентрироваться на новых.
-[1'048]
[teatrix.ru].t11537.torrent 
Торрент: Зарегистрирован [ 2015-12-07 17:45 ] · 481553D31ECD3EEFD12D9F33D8F109343626E579

Скачать .torrent

Скачать

13 KB

Статус: проверено
Скачан: 0 раз
Размер: 2.41 GB
terms.php



Быстрый ответ

Имя:

      
Для отправки сообщений необходимо включить JavaScript
Показать сообщения:    

Текущее время: 05-Дек 15:30

Часовой пояс: UTC + 3


Вы можете начинать темы
Вы можете отвечать на сообщения
Вы не можете редактировать свои сообщения
Вы не можете удалять свои сообщения
Вы не можете голосовать в опросах
Вы не можете прикреплять файлы к сообщениям
Вы можете скачивать файлы