Повелитель гироскопов (Виктор Ющенко) [2013, биография, наука, космос, история, SATRip]


Статистика раздачи [Обновить пиров]
Размер:  428 MB   |    Зарегистрирован:  1 год   |    Скачан:  0 раз

Полного источника не было: Никогда

Личеров:  3  [  0 KB/s  ]   Подробная статистика пиров
 
   
 
 
 

[Цитировать]

Повелитель гироскопов
Дата/Год выпуска: 2013
Страна: Россия
Жанр: биография, наука, космос, история
Продолжительность: 00:39:02
Перевод: Не требуется
Режиссер: Виктор Ющенко
Телеканал: ООО "Под знаком "ПИ"
Описание: лександр Юльевич Ишлинский - основоположник теории и практики гироскопов для управления ракетами, подводными лодками и другими объектами. С 1950-х годов прошлого столетия активно участвует в ракетно-космических программах. Принимал участие в работах Государственной комиссии при подготовке и проведении большинства летных испытаний ракет и первых запусков искусственных спутников Земли и других космических аппаратов на космодроме Байконур. В 1960 году Ишлинский чудом уцелел на космодроме Байконур при подготовке к первому пуску межконтинентальной баллистической ракеты "Р-16", когда произошло самопроизвольное включение второй ступени, а вслед за этим взрыв и гигантский пожар, из-за которых погибли более 100 человек... Фильм был выпущен к 100-летию со дня рождения академика А.Ю. Ишлинского.
Качество: SATRip
Формат: AVI
Видео кодек: XviD
Аудио кодек: MP3
Видео: XviD, 1395 kbps, 704x416, 25 fps
Аудио: MP3, 128 kbps, 2 ch, 48,0 КГц

MediaInfo

ОбщееПолное имя : E:\Повелитель гироскопов (2013) SATRip.aviФормат : AVIФормат/Информация : Audio Video InterleaveРазмер файла : 428 МбайтПродолжительность : 39 м.Общий поток : 1532 Кбит/секПрограмма кодирования : VirtualDubMod 1.5.10.3 | www.virtualdub-fr.org || (build 2550/release)Библиотека кодирования : VirtualDubMod build 2550/release
ВидеоИдентификатор : 0Формат : MPEG-4 VisualПрофиль формата : Advanced Simple@L5Параметр BVOP формата : 2Параметр QPel формата : НетПараметр GMC формата : Без точки переходаПараметр матрицы формата : Default (H.263)Режим смешивания : Сжатый битовый потокИдентификатор кодека : XVIDИдентификатор кодека/Подсказка : XviDПродолжительность : 39 м.Битрейт : 1395 Кбит/секШирина : 704 пикселяВысота : 416 пикселейСоотношение сторон : 1,692Частота кадров : 25,000 кадров/секЦветовое пространство : YUVСубдискретизация насыщенности : 4:2:0Битовая глубина : 8 битТип развёртки : ПрогрессивнаяМетод сжатия : С потерямиБит/(Пиксели*Кадры) : 0.190Размер потока : 389 Мбайт (91%)Библиотека кодирования : XviD 1.2.1 (UTC 2008-12-04)
АудиоИдентификатор : 1Формат : MPEG AudioВерсия формата : Version 1Профиль формата : Layer 3Идентификатор кодека : 55Идентификатор кодека/Подсказка : MP3Продолжительность : 39 м.Вид битрейта : ПостоянныйБитрейт : 128 Кбит/секКаналы : 2 каналаЧастота : 48,0 КГцМетод сжатия : С потерямиРазмер потока : 35,7 Мбайт (8%)Выравнивание : Соединение по промежуткамПродолжительность промежутка : 40 мс. (1,00 видеокадр)Время предзагрузки промежутка : 504 мс.Библиотека кодирования : LAME3.99rНастройки программы : -m s -V 4 -q 2 -lowpass 17 -b 128

Скриншоты

[teatrix.ru].t11539.torrent 
Торрент: Зарегистрирован [ 2015-12-07 17:45 ] · 2961B866164FE88E280BA739917F3A75BC7640B0

Скачать .torrent

Скачать

17 KB

Статус: проверено
Скачан: 0 раз
Размер: 428 MB
terms.php



Быстрый ответ

Имя:

      
Для отправки сообщений необходимо включить JavaScript
Показать сообщения:    

Текущее время: 10-Дек 11:52

Часовой пояс: UTC + 3


Вы можете начинать темы
Вы можете отвечать на сообщения
Вы не можете редактировать свои сообщения
Вы не можете удалять свои сообщения
Вы не можете голосовать в опросах
Вы не можете прикреплять файлы к сообщениям
Вы можете скачивать файлы