Как уходили кумиры. Галина Уланова (Дмитрий Кужаров) [2006, Документальный, биография, балет, SATRip]


 

[Цитировать]

Как уходили кумиры. Галина Уланова
Дата/Год выпуска: 2006
Страна: Россия, ДТВ
Жанр: Документальный, биография, балет
Продолжительность: 00:43:17
Перевод: Не требуется
Русские субтитры: нет
Режиссер: Дмитрий Кужаров
Описание: Они уходили от нас по-разному. Кто-то молодым, в самом расцвете творческих сил. Кто-то прожил долгую и плодотворную жизнь. Но когда бы они ни ушли, их смерть — это невосполнимая потеря для всей страны. Рассказ о неизвестных подробностях последних дней жизни великих людей России, кумиров недавнего времени — выдающихся артистов и режиссеров, поэтов и писателей, телеведущих и мастеров спорта.
Гали́на Серге́евна Ула́нова (26 декабря 1909 [8 января 1910], Санкт-Петербург, Российская империя — 21 марта 1998, Москва, Российская Федерация) — русская советская балерина, балетный педагог. Народная артистка СССР (1951). Дважды Герой Социалистического Труда (1974, 1980). Лауреат Ленинской (1957) и четырёх Сталинских (1941, 1946, 1947, 1950) премий. Является самой титулованной и более всех награждённой среди всех народных артистов СССР.
качество: SATRip
формат: AVI
Видео: 688x528 (1.30:1), 25 fps, XviD build 50 ~1799 kbps avg, 0.20 bit/pixel
Аудио: 48 kHz, MPEG Layer 3, 2 ch, ~128.00 kbps avg

MediaInfo

Complete name : D:\TV\Как уходили кумиры.Галина Уланова.2006.SATRip.aviFormat : AVIFormat/Info : Audio Video InterleaveFile size : 600 MiBDuration : 43mn 17sOverall bit rate : 1 938 KbpsWriting application : VirtualDubMod 1.5.10.3 | www.virtualdub-fr.org || (build 2550/release)Writing library : VirtualDubMod build 2550/release
VideoID : 0Format : MPEG-4 VisualFormat profile : Advanced Simple@L5Format settings, BVOP : 2Format settings, QPel : NoFormat settings, GMC : No warppointsFormat settings, Matrix : Default (MPEG)Codec ID : XVIDCodec ID/Hint : XviDDuration : 43mn 17sBit rate : 1 800 KbpsWidth : 688 pixelsHeight : 528 pixelsDisplay aspect ratio : 4:3Frame rate : 25.000 fpsColor space : YUVChroma subsampling : 4:2:0Bit depth : 8 bitsScan type : ProgressiveCompression mode : LossyBits/(Pixel*Frame) : 0.198Stream size : 557 MiB (93%)Writing library : XviD 1.2.1 (UTC 2008-12-04)
AudioID : 1Format : MPEG AudioFormat version : Version 1Format profile : Layer 3Codec ID : 55Codec ID/Hint : MP3Duration : 43mn 17sBit rate mode : ConstantBit rate : 128 KbpsChannel(s) : 2 channelsSampling rate : 48.0 KHzCompression mode : LossyStream size : 39.6 MiB (7%)Alignment : Aligned on interleavesInterleave, duration : 40 ms (1.00 video frame)Interleave, preload duration : 504 msWriting library : LAME3.99rEncoding settings : -m s -V 4 -q 2 -lowpass 17 -b 128

Скриншоты




Показать сообщения:    

Текущее время: 19-Янв 22:16

Часовой пояс: UTC + 3


Вы не можете начинать темы
Вы не можете отвечать на сообщения
Вы не можете редактировать свои сообщения
Вы не можете удалять свои сообщения
Вы не можете голосовать в опросах
Вы не можете прикреплять файлы к сообщениям
Вы не можете скачивать файлы