Эйлин Уорнос: Продажа серийной убийцы / Aileen Wuornos: The Selling of a Serial Killer (Ник Брумфилд / Nick Broomfield) [1992, Документальный, биография, экранизация, WEBRip]


Статистика раздачи [Обновить пиров]
Размер:  1.09 GB   |    Зарегистрирован:  11 месяцев 27 дней   |    Скачан:  0 раз

Полного источника не было: Никогда

Личеров:  3  [  0 KB/s  ]   Подробная статистика пиров
 
   
 
 
 

[Цитировать]

Эйлин Уорнос: Продажа серийной убийцы / Aileen Wuornos: The Selling of a Serial Killer
Дата/Год выпуска: 1992
Страна: Великобритания, Channel 4 Television Corporation
Жанр: Документальный, биография, экранизация
Продолжительность: 01:23:49
Перевод: Профессиональный (двухголосый закадровый)
Режиссер: Ник Брумфилд / Nick Broomfield
Телеканал: Channel 4
Описание: Документальный фильм об Эйлин Уорнос, снятый Ником Брумфилдом. Это экранизация попытки Брумфилда взять интервью у Уорнос, которому предшествует долгий процесс общения с ее приемной матерью Арлин Пралл и адвокатом Стивом Глэзером. Фильм по существу отображает то, как окружающие Уорнос люди пользуются ней, и подвергает сомнению справедливость судебного процесса с ее участием, учитывая интересы полиции.
Доп. информация: Фильм второй - Жизнь и смерть серийного убийцы http://teatrix.ru/viewtopic.php?t=11120
Релиз: Первоисточник (alishka2003)
Сэмпл: http://multi-up.com/993991
качество: WEBRip
формат: AVI
Видео: XviD, 1585 Кбит/с, 640x480
Аудио: MP3, 2 ch, 256 Кбит/с

MediaInfo

ОбщееПолное имя : D:\KINO\Eylin.uornos.prodaja.seriynoqo.ubiysa.1992.WEBRip.aviФормат : AVIФормат/Информация : Audio Video InterleaveПрофиль формата : OpenDMLРазмер файла : 1,09 ГбайтПродолжительность : 1 ч. 23 м.Общий поток : 1857 Кбит/секПрограмма кодирования : Lavf54.63.104
ВидеоИдентификатор : 0Формат : xvidИдентификатор кодека : xvidПродолжительность : 1 ч. 23 м.Битрейт : 1585 Кбит/секШирина : 640 пикселейВысота : 480 пикселейСоотношение сторон : 4:3Частота кадров : 25,000 кадров/секБит/(Пиксели*Кадры) : 0.206Размер потока : 951 Мбайт (85%)
АудиоИдентификатор : 1Формат : MPEG AudioВерсия формата : Version 1Профиль формата : Layer 3Режим : Joint stereoРасширение режима : MS StereoИдентификатор кодека : 55Идентификатор кодека/Подсказка : MP3Продолжительность : 1 ч. 23 м.Вид битрейта : ПостоянныйБитрейт : 256 Кбит/секКаналы : 2 каналаЧастота : 44,1 КГцМетод сжатия : С потерямиРазмер потока : 154 Мбайт (14%)Выравнивание : Соединение по промежуткамПродолжительность промежутка : 26 мс. (0,65 видеокадр)Библиотека кодирования : LAME3.99.5

Скриншоты

[teatrix.ru].t11541.torrent 
Торрент: Зарегистрирован [ 2015-12-07 17:45 ] · 20EAF71BFF12B34F208AFEC837355C3A8E09718B

Скачать .torrent

Скачать

11 KB

Статус: проверено
Скачан: 0 раз
Размер: 1.09 GB
terms.php



Быстрый ответ

Имя:

      
Для отправки сообщений необходимо включить JavaScript
Показать сообщения:    

Текущее время: 04-Дек 04:59

Часовой пояс: UTC + 3


Вы можете начинать темы
Вы можете отвечать на сообщения
Вы не можете редактировать свои сообщения
Вы не можете удалять свои сообщения
Вы не можете голосовать в опросах
Вы не можете прикреплять файлы к сообщениям
Вы можете скачивать файлы