Рабиндранат Тагор / Rabindranath Tagore (Сатьяджит Рэй / Satyajit Ray) [1961, Документальный, биография, DVDRip] VO (Nastia) + Original


Статистика раздачи [Обновить пиров]
Размер:  836 MB   |    Зарегистрирован:  1 год 1 месяц   |    Скачан:  0 раз

Полного источника не было: Никогда

Личеров:  5  [  0 KB/s  ]   Подробная статистика пиров
 
   
 
 
 

[Цитировать]

Рабиндранат Тагор / Rabindranath Tagore--
Страна: Индия
Жанр: Документальный, биография
Год выпуска: 1961
Продолжительность: 00:53:39
Перевод: Одноголосый закадровый
Перевод субтитров: larisa_k
Озвучка: Nastia
Cубтитры: нет
Оригинальная аудиодорожка: английский--Режиссер: Сатьяджит Рэй / Satyajit Ray--В ролях: Райя Чаттерджи, Сованлал Гангули, Смаран Гхосал, Пурненду Мукхерджи, Каллол Босе, Прани Нан, Норман Эллис--Описание: Документальный фильм был создан к празднованию столетия со дня рождения Тагора в мае 1961 года. Рэй понимал, что он делает официальный портрет знаменитого индийского поэта и, следовательно, фильм не содержит никаких спорных аспектов жизни Тагора. Тем не менее, это далеко не пропагандистский фильм. Фильм включает в себя театрализованные эпизоды из жизни поэта и архивные изображения и документы.--Награды:
Золотая медаль президента, Нью-Дели, 1961
Золотая медаль, Локарно, 1961
Специальное упоминание, Монтевидео, 1962--Благодарность:
larisa_k, за перевод субтитров и за предоставленные материалы
Nastia, за озвучку фильма-Сведение звука: pca1962--Сэмпл: http://multi-up.com/993919
Качество видео: DVDRip
Формат видео: AVI
Видео: XviD, 448x336, 23.97 fps, 1748 kbps
Аудио: AC3, 48 kHz, 2.0 (stereo), 192 kbps (русский)
Аудио 2: AC3, 48 kHz, 2.0 (stereo), 224 kbps (английский)-
-

MediaInfo

=== Общие ===
Полное имя : Rabindranat.Tagor.1961.DVDRip.XviD.pca1962.avi
Формат : AVI
Описание формата : Audio Video Interleave
Размер файла : 836 Мб
Длительность : 53мин 39сек
Общий битрейт : 2 178 кбит/сек
Название фильма : Rabindranat.Tagor.1961
Програмное обеспечение : VirtualDubMod 1.5.10.2 (build 2540/release)
Original source form/Name : Documentary
=== Видео ===
ID (Идентификатор) : 0
Формат : MPEG-4 Visual
Профиль формата : Advanced Simple@L5
Параметр 'BVOP' : 2
Параметр 'QPel' : Нет
Параметр 'GMC' : No warppoints
Параметр 'Matrix' : Default (MPEG)
Идентификатор кодека : XVID
Подпись кодека : XviD
Длительность : 53мин 39сек
Битрейт : 1 748 кбит/сек
Ширина кадра : 448 пикселей
Высота кадра : 336 пикселей
Соотношение сторон : 4:3
Частота кадров : 23.976 кадров/сек
Цветовое пространство : YUV
Субдискретизация насыщенности : 4:2:0
Глубина (разрядность) : 8 bits
Тип развертки : Прогрессивная
Режим сжатия : С потерями
Бит/(пиксель*кадр) : 0.484
Размер потока : 671 Мб (80%)
Кодирующая библиотека : XviD 1.2.1 (UTC 2008-12-04)
=== Аудио 1 ===
ID (Идентификатор) : 1
Формат : AC-3
Описание формата : Audio Coding 3
Mode extension : CM (complete main)
Идентификатор кодека : 2000
Длительность : 53мин 39сек
Тип битрейта : Постоянный
Битрейт : 192 кбит/сек
Канал(ы) : 2 каналов
Расположение каналов : Front: L R
Частота дискретизации : 48.0 кГц
Глубина (разрядность) : 16 bits
Режим сжатия : С потерями
Размер потока : 73.7 Мб (9%)
Расположение потока : Split accross interleaves
Период чередования : 42 мс (1.00 video frame)
Предварительная загрузка : 500 мс
=== Аудио 2 ===
ID (Идентификатор) : 2
Формат : AC-3
Описание формата : Audio Coding 3
Mode extension : CM (complete main)
Идентификатор кодека : 2000
Длительность : 53мин 39сек
Тип битрейта : Постоянный
Битрейт : 224 кбит/сек
Канал(ы) : 2 каналов
Расположение каналов : Front: L R
Частота дискретизации : 48.0 кГц
Глубина (разрядность) : 16 bits
Режим сжатия : С потерями
Размер потока : 86.0 Мб (10%)
Расположение потока : Split accross interleaves
Период чередования : 42 мс (1.00 video frame)
Предварительная загрузка : 500 мс

-
-

Скриншот c названием фильма

Скриншоты

[teatrix.ru].t11542.torrent 
Торрент: Зарегистрирован [ 2015-12-07 17:45 ] · F2B066F9F2984FAFF4CA8DAAD3912C560E77A91F

Скачать .torrent

Скачать

17 KB

Статус: проверено
Скачан: 0 раз
Размер: 836 MB
terms.php



Быстрый ответ

Имя:

      
Для отправки сообщений необходимо включить JavaScript
Показать сообщения:    

Текущее время: 22-Янв 04:42

Часовой пояс: UTC + 3


Вы можете начинать темы
Вы можете отвечать на сообщения
Вы не можете редактировать свои сообщения
Вы не можете удалять свои сообщения
Вы не можете голосовать в опросах
Вы не можете прикреплять файлы к сообщениям
Вы можете скачивать файлы