ВещДок. Геннадий Хазанов (Александр Горюнов) [2013, Документальный, биография, интервью, SATRip]


Статистика раздачи [Обновить пиров]
Размер:  430 MB   |    Зарегистрирован:  1 год   |    Скачан:  0 раз

Полного источника не было: Никогда

Личеров:  5  [  0 KB/s  ]   Подробная статистика пиров
 
   
 
 
 

[Цитировать]

ВещДок. Геннадий Хазанов
Дата/Год выпуска: 2013
Страна: Россия
Жанр: Документальный, биография, интервью
Продолжительность: 00:29:31
Перевод: Не требуется
Русские субтитры: нет
Режиссер: Александр Горюнов
Описание: Ирина Обухова и программа "ВещДОК" в гостях у Геннадия Хазанова.
По предварительному обоюдному сговору в кабинете руководителя Театра эстрады были собраны вещественные доказательства всенародной популярности и высочайшей благосклонности бывшего студента кулинарного техникума, проникшего под видом попугая в высшие эшелоны комедийного искусства. Но если вы думаете, что это начало детективной истории, то ошибаетесь. Это начало дружеской встречи ведущей программы «ВещДОК» Ирины Обуховой и народного артиста России Геннадия Хазанова.
качество: SATRip
формат: AVI
Видео: 704x528 (1.33:1), 25 fps, XviD build 50 ~1899 kbps avg, 0.20 bit/pixel
Аудио: 48 kHz, MPEG Layer 3, 2 ch, ~128.00 kbps avg

MediaInfo

Complete name : D:\Golubkina\Вещдок.Геннадий Хазанов.2013.SATRip.aviFormat : AVIFormat/Info : Audio Video InterleaveFile size : 430 MiBDuration : 29mn 31sOverall bit rate : 2 038 KbpsWriting application : VirtualDubMod 1.5.10.3 | www.virtualdub-fr.org || (build 2550/release)Writing library : VirtualDubMod build 2550/release
VideoID : 0Format : MPEG-4 VisualFormat profile : Advanced Simple@L5Format settings, BVOP : 2Format settings, QPel : NoFormat settings, GMC : No warppointsFormat settings, Matrix : Default (MPEG)Codec ID : XVIDCodec ID/Hint : XviDDuration : 29mn 31sBit rate : 1 900 KbpsWidth : 704 pixelsHeight : 528 pixelsDisplay aspect ratio : 4:3Frame rate : 25.000 fpsColor space : YUVChroma subsampling : 4:2:0Bit depth : 8 bitsScan type : ProgressiveCompression mode : LossyBits/(Pixel*Frame) : 0.204Stream size : 401 MiB (93%)Writing library : XviD 1.2.1 (UTC 2008-12-04)
AudioID : 1Format : MPEG AudioFormat version : Version 1Format profile : Layer 3Codec ID : 55Codec ID/Hint : MP3Duration : 29mn 31sBit rate mode : ConstantBit rate : 128 KbpsChannel(s) : 2 channelsSampling rate : 48.0 KHzCompression mode : LossyStream size : 27.0 MiB (6%)Alignment : Aligned on interleavesInterleave, duration : 40 ms (1.00 video frame)Interleave, preload duration : 504 msWriting library : LAME3.99rEncoding settings : -m s -V 4 -q 2 -lowpass 17 -b 128

Скриншоты

[teatrix.ru].t11546.torrent 
Торрент: Зарегистрирован [ 2015-12-07 17:45 ] · AA1144270B7DA5C6BBD11887931357768831C29F

Скачать .torrent

Скачать

9 KB

Статус: проверено
Скачан: 0 раз
Размер: 430 MB
terms.php



Быстрый ответ

Имя:

      
Для отправки сообщений необходимо включить JavaScript
Показать сообщения:    

Текущее время: 11-Дек 03:22

Часовой пояс: UTC + 3


Вы можете начинать темы
Вы можете отвечать на сообщения
Вы не можете редактировать свои сообщения
Вы не можете удалять свои сообщения
Вы не можете голосовать в опросах
Вы не можете прикреплять файлы к сообщениям
Вы можете скачивать файлы