Бернар Бове - старый человек с камерой / Bernard Bovet le vieil homme a la camera (Насер Бахти / Nasser Bakhti) [2012, документальный, биографический, DVB] Original (Fre) + Sub (rus)


Статистика раздачи [Обновить пиров]
Размер:  2.97 GB   |    Зарегистрирован:  1 год   |    Скачан:  0 раз

Полного источника не было: Никогда

Личеров:  5  [  0 KB/s  ]   Подробная статистика пиров
 
   
 
 
 

[Цитировать]

Бернар Бове - старый человек с камерой
Bernard Bovet le vieil homme à la caméra- Дата/Год выпуска: 2012
Страна: Швейцария
Жанр: документальный, биографический
Продолжительность: 01:39:47
Перевод: Субтитры
Русские субтитры: есть
Формат субтитров: hardsub (неотключаемые)
Доп. информация о субтитрах: перевод И. Безлюдной, Éclair Group
Оригинальная аудиодорожка: французский
Режиссер: Насер Бахти / Nasser Bakhti
Телеканал: TV5MONDEОписание: Фильм о 94-летнем бывшем пастухе и фермере, кинооператоре-любителе Бернаре Бове (1918-2012), который за многие годы запечатлел массу интересных жизненных моментов. Он 50 лет подряд проводил каждое лето на альпийском высокогорье. В 1989 году он в последний раз повел свое стадо вниз в долину после продолжительного летнего выпаса. "Хоть я и привык к такому распорядку – работать с пяти утра и примерно до десяти вечера, я все же иногда чувствую, что мне пора на отдых".
После 50 лет, проведенных на пастбище, Бернар Бове обнаружил страсть к кино. Снимая свои зарисовки на камеру Super 8, Бове говорит о постепенном исчезновении традиционного крестьянства, а с ним и многих традиционных ценностей. Поэтический мир его кинолент окутан ностальгией и несет в себе богатую житейскую мудрость.
Доп. информация: DVB-S
Награды: 2 награды World Mountain Documentary Festival of Qinghai China 2012 (приз "Золотая панда" режиссеру, Jade Kunlun Award); приз зрительских симпатий Festival du Film des Diablerets (Suisse) 2013; приз телевидения Словении за лучший документальный фильм International Mountain Film Festival (Slovénie) 2013.

качество: DVB
формат: MKV
Видео: MPEG Video 2, 704x576@1024x576 (16:9), 25 fps, ~3983 kbps avg, 0.393 bit/pixel
Аудио: Французский (MPEG Audio 2, 2 ch, 48 kHz, ~192.00 kbps avg)

MediaInfo

ОбщееУникальный идентификатор : 216576284408279996168864577223407867580 (0xA2EF133C4893C8BA9360480EA13E96BC)Полное имя : E:\My Torrents 2\[apreder]Bernard_Bovet_le_vieil_homme_a_la_camera(2012)DVB.mkvФормат : MatroskaВерсия формата : Version 2Размер файла : 2,97 ГбайтПродолжительность : 1 ч. 39 м.Режим общего битрейта : ПеременныйОбщий поток : 4259 Кбит/секДата кодирования : UTC 2014-08-16 08:36:19Программа кодирования : mkvmerge v7.1.0 ('Good Love') 64bit built on Jul 27 2014 13:06:55Библиотека кодирования : libebml v1.3.0 + libmatroska v1.4.1
ВидеоИдентификатор : 1Формат : MPEG VideoВерсия формата : Version 2Профиль формата : Main@MainПараметр BVOP формата : НетПараметр матрицы формата : ВыборочнаяИдентификатор кодека : V_MPEG2Идентификатор кодека/Информация : MPEG 1 or 2 VideoПродолжительность : 1 ч. 39 м.Вид битрейта : ПеременныйБитрейт : 3983 Кбит/секМаксимальный битрейт : 6325 Кбит/секШирина : 704 пикселяВысота : 576 пикселейСоотношение сторон : 16:9Режим частоты кадров : ПостоянныйЧастота кадров : 25,000 кадров/секСтандарт вещания : PALЦветовое пространство : YUVСубдискретизация насыщенности : 4:2:0Битовая глубина : 8 битТип развёртки : ЧересстрочнаяПорядок развёртки : Верхнее поле первоеМетод сжатия : С потерямиБит/(Пиксели*Кадры) : 0.393Временной код первого кадра : 00:00:00:00Оригинал временного кода : Group of pictures headerРазмер потока : 2,78 Гбайт (94%)Default : ДаForced : Нет
АудиоИдентификатор : 2Формат : MPEG AudioВерсия формата : Version 1Профиль формата : Layer 2Идентификатор кодека : A_MPEG/L2Идентификатор кодека/Подсказка : MP2Продолжительность : 1 ч. 39 м.Вид битрейта : ПостоянныйБитрейт : 192 Кбит/секКаналы : 2 каналаЧастота : 48,0 КГцМетод сжатия : С потерямиРазмер потока : 137 Мбайт (5%)Язык : FrenchDefault : ДаForced : Нет

Скриншоты


Резервные скриншоты


-[1'635]
[teatrix.ru].t11547.torrent 
Торрент: Зарегистрирован [ 2015-12-07 17:45 ] · 4F3F8431FE0D0EF98865861D738BDCD438E9DD77

Скачать .torrent

Скачать

15 KB

Статус: проверено
Скачан: 0 раз
Размер: 2.97 GB
terms.php



Быстрый ответ

Имя:

      
Для отправки сообщений необходимо включить JavaScript
Показать сообщения:    

Текущее время: 11-Дек 16:55

Часовой пояс: UTC + 3


Вы можете начинать темы
Вы можете отвечать на сообщения
Вы не можете редактировать свои сообщения
Вы не можете удалять свои сообщения
Вы не можете голосовать в опросах
Вы не можете прикреплять файлы к сообщениям
Вы можете скачивать файлы