Сэлинджер / Salinger (Шейн Салерно / Shane Salerno) [2013, Документалистика, DVB]


Статистика раздачи [Обновить пиров]
Размер:  1.42 GB   |    Зарегистрирован:  1 год   |    Скачан:  0 раз

Полного источника не было: Никогда

Личеров:  5  [  0 KB/s  ]   Подробная статистика пиров
 
   
 
 
 

[Цитировать]

Сэлинджер / Salinger
Дата/Год выпуска: 2013
Страна: США
Жанр: Документалистика
Продолжительность: 01:59:16
Перевод: Профессиональный (многоголосый закадровый)
Русские субтитры: нет
Режиссер: Шейн Салерно / Shane Salerno
Телеканал: 1 канал
Описание: Беспрецедентный взгляд на ранее неизведанные стороны затворнической жизни Джерома Дэвида Сэлинджера, автора культового романа "Над пропастью во ржи".
Режиссер ленты Шейн Салерно в течение шести лет занимался изучением жизни знаменитого американца, результатом чего явилась подробная 800-страничная биография писателя. При этом Салерно фокусировался на самом неизвестном "затворническом" периоде жизни Сэлинджера, наступившем после 1965 года, когда тот перестал публиковать свои произведения, а спустя 15 лет и вовсе отказался давать интервью. При работе над фильмом Салерно проинтервьюировал 150 человек, поддерживавших достаточно близкие отношения с писателем.
В картину вошли фрагменты бесед писателя Гора Видала, актеров Дэнни де Вито, Мартина Шина, Эдварда Нортона, Джона Кьюсака и др. Они рассказывают о том, как творчество Сэлинджера повлияло на их жизнь
Доп. информация: Производство: Story Factory, The
Операторы: Энтони Савини, Бадди Сквайр
Композитор: Лорн Бэлф
Сэмпл: http://multi-up.com/992621
качество: DVB
формат: TS/M2TS
Видео: AVC, аноморф. 720х576, 16:9, 1457 Кбит/сек, 25 fps
Аудио: MPEG Audio, 160 Кбит/сек, 44 КГц, 2 канала

MediaInfo

ОбщееИдентификатор : 16 (0x10)Полное имя : Salinger_SD.tsФормат : MPEG-TSРазмер файла : 1,42 ГбайтПродолжительность : 1 ч. 59 м.Режим общего битрейта : ПеременныйОбщий поток : 1703 Кбит/сек
ВидеоИдентификатор : 1414 (0x586)Идентификатор меню : 414 (0x19E)Формат : AVCФормат/Информация : Advanced Video CodecПрофиль формата : Main@L3.0Параметр CABAC формата : ДаПараметр ReFrames формата : 3 кадраПараметр GOP формата : M=4, N=28Идентификатор кодека : 27Продолжительность : 1 ч. 59 м.Битрейт : 1457 Кбит/секШирина : 720 пикселейВысота : 576 пикселейСоотношение сторон : 16:9Частота кадров : 25,000 кадров/секСтандарт вещания : PALЦветовое пространство : YUVСубдискретизация насыщенности : 4:2:0Битовая глубина : 8 битТип развёртки : ЧересстрочнаяПорядок развёртки : Верхнее поле первоеБит/(Пиксели*Кадры) : 0.141Размер потока : 1,21 Гбайт (86%)Основные цвета : BT.601 PALХарактеристики трансфера : BT.470 System B, BT.470 System GКоэффициенты матрицы : BT.601
АудиоИдентификатор : 2414 (0x96E)Идентификатор меню : 414 (0x19E)Формат : MPEG AudioВерсия формата : Version 1Профиль формата : Layer 2Идентификатор кодека : 4Продолжительность : 1 ч. 59 м.Вид битрейта : ПостоянныйБитрейт : 160 Кбит/секКаналы : 2 каналаЧастота : 48,0 КГцМетод сжатия : С потерямиЗадержка видео : 137 мс.Размер потока : 136 Мбайт (9%)Язык : stdЯзык, дополнительно : Clean effects

Скриншоты

[teatrix.ru].t11548.torrent 
Торрент: Зарегистрирован [ 2015-12-07 17:45 ] · 75820A0E83314C066C54D682AC7E494588264927

Скачать .torrent

Скачать

15 KB

Статус: проверено
Скачан: 0 раз
Размер: 1.42 GB
terms.php



Быстрый ответ

Имя:

      
Для отправки сообщений необходимо включить JavaScript
Показать сообщения:    

Текущее время: 10-Дек 00:23

Часовой пояс: UTC + 3


Вы можете начинать темы
Вы можете отвечать на сообщения
Вы не можете редактировать свои сообщения
Вы не можете удалять свои сообщения
Вы не можете голосовать в опросах
Вы не можете прикреплять файлы к сообщениям
Вы можете скачивать файлы