Жила-была бабка. Татьяна Пельтцер [2004, Документальный, биография, искусство, рассказ, SATRip]


Статистика раздачи [Обновить пиров]
Размер:  379 MB   |    Зарегистрирован:  1 год   |    Скачан:  1 раз

Полного источника не было: 2 месяца 5 дней

Личеров:  5  [  0 KB/s  ]   Подробная статистика пиров
 
   
 
 
 

[Цитировать]

Жила-была бабка. Татьяна Пельтцер
Дата/Год выпуска: 2004
Страна: Россия, ООО "ВИП Текникс"
Жанр: Документальный, биография, искусство, рассказ
Продолжительность: 00:26:04
Перевод: Не требуется
Русские субтитры: нет
Описание: Александр Абдулов рассказывает о своей дружбе с Татьяной Ивановной Пельтцер.
О последних годах ее жизни, совместной работе в театре «Ленком», последнем спектакле «Поминальная молитва», курьезных и забавных случаях из жизни великой актрисы. В фильме прозвучат фрагменты интервью Татьяны Пельтцер разных лет, а также использованы фрагменты спектаклей театра «Сатиры» и театра «Ленком», фрагменты кинофильмов с участием Татьяны Пельтцер, архивные материалы Государственного архива кинофотодокументов и Гостелерадиофонда и фотографии из личного архива актрисы.
качество: SATRip
формат: AVI
Видео: 688x528 (1.30:1), 25 fps, XviD build 50 ~1894 kbps avg, 0.21 bit/pixel
Аудио: 48 kHz, MPEG Layer 3, 2 ch, ~128.00 kbps avg

MediaInfo

Complete name : C:\Users\Home\Desktop\Razdacha\Жила-была бабка.Татьяна Пельтцер.2004.SATRip.aviFormat : AVIFormat/Info : Audio Video InterleaveFile size : 379 MiBDuration : 26mn 4sOverall bit rate : 2 033 KbpsWriting application : VirtualDubMod 1.5.10.3 | www.virtualdub-fr.org || (build 2550/release)Writing library : VirtualDubMod build 2550/release
VideoID : 0Format : MPEG-4 VisualFormat profile : Advanced Simple@L5Format settings, BVOP : 2Format settings, QPel : NoFormat settings, GMC : No warppointsFormat settings, Matrix : Default (MPEG)Codec ID : XVIDCodec ID/Hint : XviDDuration : 26mn 4sBit rate : 1 895 KbpsWidth : 688 pixelsHeight : 528 pixelsDisplay aspect ratio : 4:3Frame rate : 25.000 fpsColor space : YUVChroma subsampling : 4:2:0Bit depth : 8 bitsScan type : ProgressiveCompression mode : LossyBits/(Pixel*Frame) : 0.209Stream size : 353 MiB (93%)Writing library : XviD 1.2.1 (UTC 2008-12-04)
AudioID : 1Format : MPEG AudioFormat version : Version 1Format profile : Layer 3Codec ID : 55Codec ID/Hint : MP3Duration : 26mn 4sBit rate mode : ConstantBit rate : 128 KbpsChannel(s) : 2 channelsSampling rate : 48.0 KHzCompression mode : LossyStream size : 23.9 MiB (6%)Alignment : Aligned on interleavesInterleave, duration : 40 ms (1.00 video frame)Interleave, preload duration : 504 msWriting library : LAME3.99rEncoding settings : -m s -V 4 -q 2 -lowpass 17 -b 128

Скриншоты

[teatrix.ru].t11549.torrent 
Торрент: Зарегистрирован [ 2015-12-07 17:45 ] · 3CDB170AFDC7ED22CEE966EFB2C51F4382149574

Скачать .torrent

Скачать

8 KB

Статус: проверено
Скачан: 1 раз
Размер: 379 MB
terms.php



Быстрый ответ

Имя:

      
Для отправки сообщений необходимо включить JavaScript
Показать сообщения:    

Текущее время: 07-Дек 23:20

Часовой пояс: UTC + 3


Вы можете начинать темы
Вы можете отвечать на сообщения
Вы не можете редактировать свои сообщения
Вы не можете удалять свои сообщения
Вы не можете голосовать в опросах
Вы не можете прикреплять файлы к сообщениям
Вы можете скачивать файлы