Последние 24 часа. Евгений Матвеев (Фуад Шабанов) [2008, Документальный, биография, искусство, SATRip]


Статистика раздачи [Обновить пиров]
Размер:  719 MB   |    Зарегистрирован:  11 месяцев 27 дней   |    Скачан:  0 раз

Полного источника не было: Никогда

Личеров:  5  [  0 KB/s  ]   Подробная статистика пиров
 
   
 
 
 

[Цитировать]

Последние 24 часа. Евгений Матвеев
Дата/Год выпуска: 2008
Страна: Россия, ТК "Пиманов и партнеры"
Жанр: Документальный, биография, искусство
Продолжительность: 00:51:52
Перевод: Не требуется
Русские субтитры: нет
Режиссер: Фуад Шабанов
Описание: Последние 24 часа легендарных людей, чьи имена — и есть новейшая история. Роковые предзнаменования, последние встречи и последние слова.
1 июня 2003 года в Москве днем началась сильнейшая гроза. Она быстро закончилась. Именно в это время в московской больнице на руках своей жены скончался Евгений Семенович Матвеев... Он сыграл более шестидесяти ролей в кино – ярких, сложных, не похожих. Есть больше десятка снятых им, как режиссером, картин. Сам он всегда считал себя простым человеком, чью жизнь определило гадание старой цыганки. Но у него было необычное увлечение.
Он любил помогать людям и находил удивительные возможности это делать. Но он всю жизнь прожил с ощущением того, что он "чужой среди своих". Его дед считал маленького Женьку незаконнорожденным, в Тюмени смеялись над его херсонским "гэканьем". Позднее, в Малом театре, его называли за глаза "сибирским валенком" и не признавали театральным актером. В кино – наоборот – считали "не своим" поскольку он был не из "вгиковцев". Маститые режиссеры не высоко ценили его режиссерские работы, но именно эти фильмы любили зрители. В последние дни он желал только одного – сыграть еще две роли… Но их сыграли другие.
качество: SATRip
формат: AVI
Видео: 688x512 (1.34:1), 25 fps, XviD build 50 ~1799 kbps avg, 0.20 bit/pixel
Аудио: 48 kHz, MPEG Layer 3, 2 ch, ~128.00 kbps avg

MediaInfo

Complete name : D:\Golubkina\Последние 24 часа.Евгений Матвеев.2008.SATRip.aviFormat : AVIFormat/Info : Audio Video InterleaveFile size : 719 MiBDuration : 51mn 52sOverall bit rate : 1 937 KbpsWriting application : VirtualDubMod 1.5.10.3 | www.virtualdub-fr.org || (build 2550/release)Writing library : VirtualDubMod build 2550/release
VideoID : 0Format : MPEG-4 VisualFormat profile : Advanced Simple@L5Format settings, BVOP : 2Format settings, QPel : NoFormat settings, GMC : No warppointsFormat settings, Matrix : Default (MPEG)Codec ID : XVIDCodec ID/Hint : XviDDuration : 51mn 52sBit rate : 1 799 KbpsWidth : 688 pixelsHeight : 512 pixelsDisplay aspect ratio : 4:3Frame rate : 25.000 fpsColor space : YUVChroma subsampling : 4:2:0Bit depth : 8 bitsScan type : ProgressiveCompression mode : LossyBits/(Pixel*Frame) : 0.204Stream size : 668 MiB (93%)Writing library : XviD 1.2.1 (UTC 2008-12-04)
AudioID : 1Format : MPEG AudioFormat version : Version 1Format profile : Layer 3Codec ID : 55Codec ID/Hint : MP3Duration : 51mn 52sBit rate mode : ConstantBit rate : 128 KbpsChannel(s) : 2 channelsSampling rate : 48.0 KHzCompression mode : LossyStream size : 47.5 MiB (7%)Alignment : Aligned on interleavesInterleave, duration : 40 ms (1.00 video frame)Interleave, preload duration : 504 msWriting library : LAME3.99rEncoding settings : -m s -V 4 -q 2 -lowpass 17 -b 128

Скриншоты

[teatrix.ru].t11550.torrent 
Торрент: Зарегистрирован [ 2015-12-07 17:45 ] · 55005ECE1010C497B3621564904DED5D5F1F7387

Скачать .torrent

Скачать

15 KB

Статус: проверено
Скачан: 0 раз
Размер: 719 MB
terms.php



Быстрый ответ

Имя:

      
Для отправки сообщений необходимо включить JavaScript
Показать сообщения:    

Текущее время: 04-Дек 04:58

Часовой пояс: UTC + 3


Вы можете начинать темы
Вы можете отвечать на сообщения
Вы не можете редактировать свои сообщения
Вы не можете удалять свои сообщения
Вы не можете голосовать в опросах
Вы не можете прикреплять файлы к сообщениям
Вы можете скачивать файлы