Звезды эфира. Тарапунька и Штепсель (Георгий Ананов) [2004, Документальный, юмор, история, хроника, SATRip]


Статистика раздачи [Обновить пиров]
Размер:  358 MB   |    Зарегистрирован:  11 месяцев 26 дней   |    Скачан:  1 раз

Полного источника не было: 1 месяц 2 дня

Личеров:  6  [  0 KB/s  ]   Подробная статистика пиров
 
   
 
 
 

[Цитировать]

Звезды эфира. Тарапунька и Штепсель
Дата/Год выпуска: 2004
Страна: Россия, ООО "Телекомпания "Плазма"
Жанр: Документальный, юмор, история, хроника
Продолжительность: 00:25:56
Перевод: Не требуется
Русские субтитры: нет
Режиссер: Георгий Ананов
Описание: Им писали письма: Москва, Кремль, Тарапуньке и Штепселю. Им жаловались на произвол чиновников, просили вернуть мужей и покритиковать бракованные изделия. Тарапунька – Юрий Тимошенко и Штепсель – Ефим Березин – на сцене всеми воспринимаются как одно целое. В жизни – полные противоположности. Юрий Тимошенко – взбалмошный, увлекающийся, взрывной. На вопрос о национальности своего напарника запросто мог врезать в зубы. А когда его спросили, почему они с Березиным до сих пор не в партии, он ответил: "Выгоните из партии всех подонков, и мы сами к вам придем". Мозговой центр дуэта – Ефим Березин, тихий и рассудительный. Он знал наизусть не только свои реплики, но и реплики забывчивого партнера, во время выступлений часто подсказывал: "Ты наверное, хотел меня спросить …?" На похоронах Юрия Тимошенко Ефим Березин сказал: Мне так много хотелось сказать о тебе, но я впервые забыл текст.
качество: SATRip
формат: AVI
Видео: XviD, 1793 Кбит/с, 672х512
Аудио: MP3, 2 ch, 128 Кбит/с

MediaInfo

Complete name : D:\TV\Звезды эфира.Тарапунька и Штепсель.2004.SATRip.aviFormat : AVIFormat/Info : Audio Video InterleaveFile size : 358 MiBDuration : 25mn 56sOverall bit rate : 1 931 KbpsWriting application : VirtualDubMod 1.5.10.3 | www.virtualdub-fr.org || (build 2550/release)Writing library : VirtualDubMod build 2550/release
VideoID : 0Format : MPEG-4 VisualFormat profile : Advanced Simple@L5Format settings, BVOP : 2Format settings, QPel : NoFormat settings, GMC : No warppointsFormat settings, Matrix : Default (MPEG)Codec ID : XVIDCodec ID/Hint : XviDDuration : 25mn 56sBit rate : 1 793 KbpsWidth : 672 pixelsHeight : 512 pixelsDisplay aspect ratio : 4:3Frame rate : 25.000 fpsColor space : YUVChroma subsampling : 4:2:0Bit depth : 8 bitsScan type : ProgressiveCompression mode : LossyBits/(Pixel*Frame) : 0.209Stream size : 333 MiB (93%)Writing library : XviD 1.2.1 (UTC 2008-12-04)
AudioID : 1Format : MPEG AudioFormat version : Version 1Format profile : Layer 3Codec ID : 55Codec ID/Hint : MP3Duration : 25mn 56sBit rate mode : ConstantBit rate : 128 KbpsChannel(s) : 2 channelsSampling rate : 48.0 KHzCompression mode : LossyStream size : 23.8 MiB (7%)Alignment : Aligned on interleavesInterleave, duration : 40 ms (1.00 video frame)Interleave, preload duration : 504 msWriting library : LAME3.99rEncoding settings : -m s -V 4 -q 2 -lowpass 17 -b 128

Скриншоты



[teatrix.ru].t11551.torrent 
Торрент: Зарегистрирован [ 2015-12-07 17:45 ] · 73C7F14D8566731EFB59BAA88CCCD5053ECB22FA

Скачать .torrent

Скачать

8 KB

Статус: проверено
Скачан: 1 раз
Размер: 358 MB
terms.php



Быстрый ответ

Имя:

      
Для отправки сообщений необходимо включить JavaScript
Показать сообщения:    

Текущее время: 03-Дек 16:44

Часовой пояс: UTC + 3


Вы можете начинать темы
Вы можете отвечать на сообщения
Вы не можете редактировать свои сообщения
Вы не можете удалять свои сообщения
Вы не можете голосовать в опросах
Вы не можете прикреплять файлы к сообщениям
Вы можете скачивать файлы