Юрий Андропов. Легенды и биография [ТВЦ 18.06.2014] (Леонид Млечин) [2014 г., Документальный, авторское ТВ, DVB]


Статистика раздачи [Обновить пиров]
Размер:  2.76 GB   |    Зарегистрирован:  11 месяцев 27 дней   |    Скачан:  0 раз

Полного источника не было: Никогда

Личеров:  5  [  0 KB/s  ]   Подробная статистика пиров
 
   
 
 
 

[Цитировать]

«Юрий Андропов. Легенды и биография»
Документальный фильм Фильм Леонида Млечина
Дата эфира: 18.06.2014
Страна: Россия
Жанр: Документальный
Продолжительность: 0:38:00
Автор и ведущий: Леонид Млечин
Режиссер: Екатерина Гальперина
Перевод: Не требуется
Русские субтитры: нет
Описание: 15 лет он был председателем "великого и ужасного" КГБ. 15 месяцев - Генеральным секретарем ЦК КПСС - хозяином страны. В его биографии - множество загадок. Вокруг его имени - множество легенд. Так каким же он был?
Релиз группы:
Качество: DVB
Формат: MPEG-PS
Видео: MPEG2 Video, 720x576 (4:3), 50 fps, 9900 kbps
Аудио: MPEG Audiо, 2 сh, 48 kHz, 224 kbps

MediaInfo:

Общее
Полное имя : D:\Torrents\Jurij_Andropov-Legendy_i_biografija_18.06.2014_(TVC)_[rutracker.org].mpg
Формат : MPEG-PS
Размер файла : 2,76 Гбайт
Продолжительность : 38 м.
Общий поток : 10,4 Мбит/сек
Библиотека кодирования : (c) 1998-2009 Womble Multimedia, Inc. / MPEG Video Wizard (03/2009) / Dec 24 2009
Видео
Идентификатор : 224 (0xE0)
Формат : MPEG Video
Версия формата : Version 2
Профиль формата : High@High
Параметр BVOP формата : Да
Параметр матрицы формата : По умолчанию
Параметр GOP формата : M=3, N=15
Продолжительность : 38 м.
Битрейт : 10,0 Мбит/сек
Ширина : 720 пикселей
Высота : 576 пикселей
Соотношение сторон : 4:3
Частота кадров : 50,000 кадров/сек
Стандарт вещания : PAL
Цветовое пространство : YUV
Субдискретизация насыщенности : 4:2:0
Битовая глубина : 8 бит
Тип развёртки : Прогрессивная
Метод сжатия : С потерями
Бит/(Пиксели*Кадры) : 0.484
Размер потока : 2,65 Гбайт (96%)
Выравнивание : (c) 1998-2009 Womble Multimedia, Inc. / MPEG Video Wizard (03/2009) / Dec 24 2009
Заголовок : (c) 1998-2009 Womble Multimedia, Inc. / MPEG Video Wizard (03/2009) / Dec 24 2009
Библиотека кодирования : (c) 1998-2009 Womble Multimedia, Inc. / MPEG Video Wizard (03/2009) / Dec 24 2009
Основные цвета : BT.601 PAL
Характеристики трансфера : BT.470 System B, BT.470 System G
Коэффициенты матрицы : BT.601
Аудио
Идентификатор : 192 (0xC0)
Формат : MPEG Audio
Версия формата : Version 1
Профиль формата : Layer 2
Продолжительность : 38 м.
Вид битрейта : Постоянный
Битрейт : 224 Кбит/сек
Каналы : 2 канала
Частота : 48,0 КГц
Метод сжатия : С потерями
Задержка видео : -40 мс.
Размер потока : 60,9 Мбайт (2%)

Скриншоты. Превью, увеличение по клику:

На раздаче по возможности, ~20 Mb/s. > [Что от меня зависит, сделал. Остальное зависит от Вас, трекера и наших провайдеров.]
[teatrix.ru].t11552.torrent 
Торрент: Зарегистрирован [ 2015-12-07 17:45 ] · 79D406232E543F439F28CED9D392B5F331499ACA

Скачать .torrent

Скачать

14 KB

Статус: проверено
Скачан: 0 раз
Размер: 2.76 GB
terms.php



Быстрый ответ

Имя:

      
Для отправки сообщений необходимо включить JavaScript
Показать сообщения:    

Текущее время: 03-Дек 18:40

Часовой пояс: UTC + 3


Вы можете начинать темы
Вы можете отвечать на сообщения
Вы не можете редактировать свои сообщения
Вы не можете удалять свои сообщения
Вы не можете голосовать в опросах
Вы не можете прикреплять файлы к сообщениям
Вы можете скачивать файлы