Отрывки из ненаписанного. Евгений Глебов (Владимир Орлов) [1999, Биография, DVDRip]


Статистика раздачи [Обновить пиров]
Размер:  585 MB   |    Зарегистрирован:  11 месяцев   |    Скачан:  0 раз

Полного источника не было: Никогда

Личеров:  5  [  0 KB/s  ]   Подробная статистика пиров
 
   
 
 
 

[Цитировать]

Отрывки из ненаписанного. Евгений Глебов
Дата/Год выпуска: 1999
Страна: Республика Беларусь
Жанр: Биография
Продолжительность: 00:38:23
Перевод: Не требуется
Русские субтитры: нет
Режиссер: Владимир Орлов
Телеканал: Национальная ГТРК РБ

Описание: Фильм о народном артисте СССР и РБ, лауреате государственной премии БССР, профессоре Евгение Глебове. Начиная с детства, становления в трудовую жизнь, затем годы учебы и творчества, всегда трудного и не всеми воспринятого, годы гонений, наград, собственный анализ творческого пути, удовлетворения от созданного, и оценка деятельности и прожитых лет в воспоминаниях друзей, коллег, самого Евагения Глебова, - об этом фильм.
В фильм включены фрагменты авторских программ и фильмов Б. Бахтиярова,
В. Дайнеко, Э. Езерской, С. Лукьянчикова, Р. Викторова, В. Корш-Саблина, В. Орлова, Л. Хотенко, В. Шевелевича, материалы Гос. архива кинофотофонодокументов РБ, любительские киносъемки Радиона Глебова.
Песни исполняли ансамбль "Чаровницы", Н. Гайда, Н. Подгайский, Т. Раевская, Н. Скориков.

Доп. информация: Релиз:
Исходный материал предоставил: некто Андрей
Автор релиза: pmv

Семпл: http://multi-up.com/981016
качество: DVDRip
формат: AVI
Видео: 720x544 (1.32:1), 25 fps, XviD build 73 ~1986 kbps avg, 0.20 bit/pixel
Аудио: 48 kHz, MPEG Layer 3, 2 ch, ~128.00 kbps avg

Список выпусков/серий

1 серия

MediaInfo

Формат : AVIФормат/Информация : Audio Video InterleaveРазмер файла : 585 МбайтПродолжительность : 38 м.Общий поток : 2132 Кбит/секБиблиотека кодирования : VirtualDub build 35512/release
ВидеоИдентификатор : 0Формат : MPEG-4 VisualПрофиль формата : Advanced Simple@L5Параметр BVOP формата : 2Параметр QPel формата : НетПараметр GMC формата : Без точки переходаПараметр матрицы формата : Default (H.263)Режим смешивания : Сжатый битовый потокИдентификатор кодека : XVIDИдентификатор кодека/Подсказка : XviDПродолжительность : 38 м.Битрейт : 1994 Кбит/секШирина : 720 пикселейВысота : 544 пикселяСоотношение сторон : 4:3Частота кадров : 25,000 кадров/секЦветовое пространство : YUVСубдискретизация насыщенности : 4:2:0Битовая глубина : 8 битТип развёртки : ПрогрессивнаяМетод сжатия : С потерямиБит/(Пиксели*Кадры) : 0.204Размер потока : 548 Мбайт (94%)Библиотека кодирования : XviD 73
АудиоИдентификатор : 1Формат : MPEG AudioВерсия формата : Version 1Профиль формата : Layer 3Идентификатор кодека : 55Идентификатор кодека/Подсказка : MP3Продолжительность : 38 м.Вид битрейта : ПостоянныйБитрейт : 128 Кбит/секКаналы : 2 каналаЧастота : 48,0 КГцМетод сжатия : С потерямиЗадержка видео : 20 мс.Размер потока : 35,1 Мбайт (6%)Выравнивание : Разделение по промежуткамПродолжительность промежутка : 40 мс. (1,00 видеокадр)Время предзагрузки промежутка : 500 мс.

Скриншоты

[teatrix.ru].t11554.torrent 
Торрент: Зарегистрирован [ 2015-12-07 17:45 ] · AEBD01CF2ADAB3CD65D5C260681E42DB443CEFA8

Скачать .torrent

Скачать

12 KB

Статус: проверено
Скачан: 0 раз
Размер: 585 MB
terms.php



Быстрый ответ

Имя:

      
Для отправки сообщений необходимо включить JavaScript
Показать сообщения:    

Текущее время: 05-Дек 05:25

Часовой пояс: UTC + 3


Вы можете начинать темы
Вы можете отвечать на сообщения
Вы не можете редактировать свои сообщения
Вы не можете удалять свои сообщения
Вы не можете голосовать в опросах
Вы не можете прикреплять файлы к сообщениям
Вы можете скачивать файлы