Валентин Смирнитский. Пан или пропал (Марина Исаева) [10.06.2014, Биография, SATRip]


Статистика раздачи [Обновить пиров]
Размер:  457 MB   |    Зарегистрирован:  1 год   |    Скачан:  0 раз

Полного источника не было: Никогда

Личеров:  5  [  0 KB/s  ]   Подробная статистика пиров
 
   
 
 
 

[Цитировать]

Валентин Смирнитский. Пан или пропал
Дата/Год выпуска: 10.06.2014
Страна: Россия
Жанр: Биография
Продолжительность: 00:39:01
Перевод: Не требуется
Режиссер: Марина Исаева
Телеканал: ТВЦ
Описание: За любовь, за друзей, за справедливость, да и просто – "из принципа" – Валентин Смирнитский бился не только на экране, но и в жизни. Его выгоняли из школы и из театра. Случалось, что за ним гналась полиция… Но ни партнёров, ни режиссёров, ни зрителей Валентин Георгиевич никогда не подводил – даже в самых экстремальных случаях.
качество: SATRip
формат: AVI
видео кодек: DivX
аудио кодек: MP3
Видео: MPEG-4 Visual, 640 x 480 (1.333), 1499 Kbps, 25.000 fps
Аудио: MPEG Audio, 2 ch, 128 Kbps, 48.0 KHz

MediaInfo

Format : AVIFormat/Info : Audio Video InterleaveFile size : 457 MiBDuration : 39mn 1sOverall bit rate : 1 636 KbpsWriting application : VirtualDubMod 1.5.10.2 (build 2540/release)Writing library : VirtualDubMod build 2540/release
VideoID : 0Format : MPEG-4 VisualFormat profile : Simple@L1Format settings, BVOP : NoFormat settings, QPel : NoFormat settings, GMC : No warppointsFormat settings, Matrix : Default (H.263)Codec ID : DIVXCodec ID/Info : Project MayoCodec ID/Hint : DivX 4Duration : 39mn 1sBit rate : 1 499 KbpsWidth : 640 pixelsHeight : 480 pixelsDisplay aspect ratio : 4:3Frame rate : 25.000 fpsColor space : YUVChroma subsampling : 4:2:0Bit depth : 8 bitsScan type : ProgressiveCompression mode : LossyBits/(Pixel*Frame) : 0.195Stream size : 418 MiB (92%)Writing library : Lavc52.61.0
AudioID : 1Format : MPEG AudioFormat version : Version 1Format profile : Layer 3Codec ID : 55Codec ID/Hint : MP3Duration : 39mn 1sBit rate mode : ConstantBit rate : 128 KbpsChannel(s) : 2 channelsSampling rate : 48.0 KHzCompression mode : LossyStream size : 35.7 MiB (8%)Alignment : Aligned on interleavesInterleave, duration : 40 ms (1.00 video frame)Interleave, preload duration : 504 msWriting library : LAME3.98rEncoding settings : -m s -V 4 -q 2 -lowpass 17 -b 128

Скриншоты

Не забывай говорить "Спасибо"
Пожалуйста не уходите с раздачи!
[teatrix.ru].t11555.torrent 
Торрент: Зарегистрирован [ 2015-12-07 17:45 ] · DD973E53686983E6AAF2A0D91D307A3E8DE75CC7

Скачать .torrent

Скачать

18 KB

Статус: проверено
Скачан: 0 раз
Размер: 457 MB
terms.php



Быстрый ответ

Имя:

      
Для отправки сообщений необходимо включить JavaScript
Показать сообщения:    

Текущее время: 11-Дек 16:54

Часовой пояс: UTC + 3


Вы можете начинать темы
Вы можете отвечать на сообщения
Вы не можете редактировать свои сообщения
Вы не можете удалять свои сообщения
Вы не можете голосовать в опросах
Вы не можете прикреплять файлы к сообщениям
Вы можете скачивать файлы