Александр Шилов. Они сражались за Родину (Алексей Рафаенко) [2014, Биография, живопись, война, искусство, SATRip]


Статистика раздачи [Обновить пиров]
Размер:  393 MB   |    Зарегистрирован:  1 год   |    Скачан:  0 раз

Полного источника не было: Никогда

Личеров:  6  [  0 KB/s  ]   Подробная статистика пиров
 
   
 
 
 

[Цитировать]

Александр Шилов. Они сражались за Родину
Дата/Год выпуска: 2014
Страна: Россия
Жанр: Биография, живопись, война, искусство
Продолжительность: 00:39:28
Перевод: Не требуется
Режиссер: Алексей Рафаенко
Телеканал: Звезда
Описание: «Они сражались за Родину». Знаменитый роман Михаила Шолохова дал название, едва ли не главной, экспозиции в картинной галерее художника Александра Шилова. Многих их тех, кто изображен здесь, уже нет в живых. Но эти портреты должны не позволить потомкам забыть важные страницы в истории нашей страны. Они призваны сохранить память о героях прошлого, чтобы вдохновлять на подвиги будущих защитников Отечества.
Доп. информация: Рип от kosta52
качество: SATRip
формат: AVI
Видео кодек: XviD
Аудио кодек: MP3
Видео: MPEG-4 Visual, 704 x 384 (1.833), 1254 Kbps, 25.000 fps
Аудио: MPEG Audio, 2 ch, 128 Kbps, 44.1 KHz

MediaInfo

Формат : AVIФормат/Информация : Audio Video InterleaveРазмер файла : 393 МбайтПродолжительность : 39 м.Общий поток : 1392 Кбит/секПрограмма кодирования : VirtualDubMod 1.5.10.3 | www.virtualdub-fr.org || (build 2550/release)Библиотека кодирования : Boilsoft AVI tool build 1/release
ВидеоИдентификатор : 0Формат : MPEG-4 VisualПрофиль формата : Advanced Simple@L5Параметр BVOP формата : 2Параметр QPel формата : НетПараметр GMC формата : Без точки переходаПараметр матрицы формата : Default (H.263)Режим смешивания : Сжатый битовый потокИдентификатор кодека : XVIDИдентификатор кодека/Подсказка : XviDПродолжительность : 39 м.Битрейт : 1254 Кбит/секШирина : 704 пикселяВысота : 384 пикселяСоотношение сторон : 1,85:1Частота кадров : 25,000 кадров/секЦветовое пространство : YUVСубдискретизация насыщенности : 4:2:0Битовая глубина : 8 битТип развёртки : ПрогрессивнаяМетод сжатия : С потерямиБит/(Пиксели*Кадры) : 0.186Размер потока : 354 Мбайт (90%)Библиотека кодирования : XviD 1.2.1 (UTC 2008-12-04)
АудиоИдентификатор : 1Формат : MPEG AudioВерсия формата : Version 1Профиль формата : Layer 3Идентификатор кодека : 55Идентификатор кодека/Подсказка : MP3Продолжительность : 39 м.Вид битрейта : ПостоянныйБитрейт : 128 Кбит/секКаналы : 2 каналаЧастота : 44,1 КГцМетод сжатия : С потерямиРазмер потока : 36,1 Мбайт (9%)Выравнивание : Разделение по промежуткамПродолжительность промежутка : 40 мс. (1,00 видеокадр)Время предзагрузки промежутка : 500 мс.Библиотека кодирования : LAME3.99rНастройки программы : -m s -V 4 -q 2 -lowpass 17 -b 128

Скриншоты

Не забывай говорить "Спасибо"
Пожалуйста не уходите с раздачи!
[teatrix.ru].t11556.torrent 
Торрент: Зарегистрирован [ 2015-12-07 17:45 ] · 132675322DF3AD1EBD6DBE8BCCC50052EBF79AB8

Скачать .torrent

Скачать

16 KB

Статус: проверено
Скачан: 0 раз
Размер: 393 MB
terms.php



Быстрый ответ

Имя:

      
Для отправки сообщений необходимо включить JavaScript
Показать сообщения:    

Текущее время: 07-Дек 19:20

Часовой пояс: UTC + 3


Вы можете начинать темы
Вы можете отвечать на сообщения
Вы не можете редактировать свои сообщения
Вы не можете удалять свои сообщения
Вы не можете голосовать в опросах
Вы не можете прикреплять файлы к сообщениям
Вы можете скачивать файлы