Владимир Сошальский - Одинокий голос скрипки (Елена Никитан) [2009, Биография, культура, история, SATRip]


Статистика раздачи [Обновить пиров]
Размер:  447 MB   |    Зарегистрирован:  11 месяцев 26 дней   |    Скачан:  0 раз

Полного источника не было: Никогда

Личеров:  5  [  0 KB/s  ]   Подробная статистика пиров
 
   
 
 
 

[Цитировать]

Владимир Сошальский - Одинокий голос скрипки
Дата/Год выпуска: 2009
Страна: Россия
Жанр: Биография, культура, история
Продолжительность: 00:38:28
Перевод: Не требуется
Режиссер: Елена Никитан
Телеканал: ГТРК "Культура"
Описание: Более 50 лет Владимир Сошальский был актером Центрального театра Российской Армии, на сцене он сыграл в десятках спектаклей. Кроме того, актер снимался в кино, в том числе в таких фильмах как: "Анна на шее", "Отелло", "На графских развалинах", "31 июня", "Дуэнья". Владимир Сошальский — советский и российский актёр театра и кино. Народный артист РСФСР. Настоящая фамилия — Феодосьев. Ещё до окончания школы он поступил в студию при Ленинградском ТЮЗе. В 1948 году он окончил обучение и до 1951 года работал в этом театре. Именно в Ленинградском ТЮЗе Владимир Сошальский сыграл свою первую звёздную роль: в спектакле «Ромео и Джульетта» ему довелось исполнить роль Ромео. После этой роли актёр стал знаменит, у него появились многочисленные поклонницы.
Доп. информация: Спасибо за постер maksnev82
качество: SATRip
формат: AVI
Видео: DivX, 1623 Кбит/с, 640x480
Аудио: MP3, 2 ch, 128 Кбит/с

MediaInfo

Формат : AVIФормат/Информация : Audio Video InterleaveРазмер файла : 447 МбайтПродолжительность : 38 м.Общий поток : 1623 Кбит/секПрограмма кодирования : VirtualDubMod 1.5.10.2 (build 2540/release)Библиотека кодирования : VirtualDubMod build 2540/release
ВидеоИдентификатор : 0Формат : MPEG-4 VisualПрофиль формата : Simple@L1Параметр BVOP формата : НетПараметр QPel формата : НетПараметр GMC формата : Без точки переходаПараметр матрицы формата : Default (H.263)Идентификатор кодека : DIVXИдентификатор кодека/Информация : Project MayoИдентификатор кодека/Подсказка : DivX 4Продолжительность : 38 м.Битрейт : 1485 Кбит/секШирина : 640 пикселейВысота : 480 пикселейСоотношение сторон : 4:3Частота кадров : 25,000 кадров/секЦветовое пространство : YUVСубдискретизация насыщенности : 4:2:0Битовая глубина : 8 битТип развёртки : ПрогрессивнаяМетод сжатия : С потерямиБит/(Пиксели*Кадры) : 0.193Размер потока : 409 Мбайт (92%)Библиотека кодирования : Lavc52.61.0
АудиоИдентификатор : 1Формат : MPEG AudioВерсия формата : Version 1Профиль формата : Layer 3Идентификатор кодека : 55Идентификатор кодека/Подсказка : MP3Продолжительность : 38 м.Вид битрейта : ПостоянныйБитрейт : 128 Кбит/секКаналы : 2 каналаЧастота : 48,0 КГцМетод сжатия : С потерямиРазмер потока : 35,2 Мбайт (8%)Выравнивание : Соединение по промежуткамПродолжительность промежутка : 40 мс. (1,00 видеокадр)Время предзагрузки промежутка : 504 мс.Библиотека кодирования : LAME3.98rНастройки программы : -m s -V 4 -q 2 -lowpass 17 -b 128

Скриншоты

Не забывай говорить "Спасибо"
Пожалуйста не уходите с раздачи!
[teatrix.ru].t11560.torrent 
Торрент: Зарегистрирован [ 2015-12-07 17:45 ] · 38998F807F6A7DB9E1FE91016E7ABDFCFF4EA1B1

Скачать .torrent

Скачать

18 KB

Статус: проверено
Скачан: 0 раз
Размер: 447 MB
terms.php



Быстрый ответ

Имя:

      
Для отправки сообщений необходимо включить JavaScript
Показать сообщения:    

Текущее время: 03-Дек 07:34

Часовой пояс: UTC + 3


Вы можете начинать темы
Вы можете отвечать на сообщения
Вы не можете редактировать свои сообщения
Вы не можете удалять свои сообщения
Вы не можете голосовать в опросах
Вы не можете прикреплять файлы к сообщениям
Вы можете скачивать файлы