Андрей Шмеман - Последний подданный Российской империи. (Валерий Дёмин, Людмила Дёмина) [2009, Документальный, биография, SATRip]


Статистика раздачи [Обновить пиров]
Размер:  379 MB   |    Зарегистрирован:  1 год   |    Скачан:  0 раз

Полного источника не было: Никогда

Личеров:  5  [  0 KB/s  ]   Подробная статистика пиров
 
   
 
 
 

[Цитировать]

Андрей Шмеман - Последний подданный Российской империи.
Дата/Год выпуска: 2009
Страна: Россия
Жанр: Биография, политика, история
Продолжительность: 00:39:30
Перевод: Не требуется
Режиссер: Валерий Дёмин, Людмила Дёмина
Телеканал: Россия - Культура
Описание: Андрей Шмеман всю жизнь прожил с так называемым нансеновским паспортом - временным удостоверением личности, что сделало его пребывание на французской земле крайне сложным. Андрей Шмеман - сын офицера лейб-гвардии Семеновского полка Дмитрия Николаевича Шмемана. В 1919 году Дмитрий Шмеман покинул Россию вместе с войсками Юденича. Андрей и его брат Александр родились уже в Ревеле (ныне Таллин) в 1921 году. В 1929 году Шмеманы переехали во Францию. Более полувека Андрей Шмеман являлся старостой Знаменской церкви в Париже, был иподиаконом. Стал одним из инициаторов создания общественной организации "Движение за поместное православие русской традиции в Западной Европе" и всегда оставался убежденным сторонником возвращения эмигрантов в лоно Русской Православной Церкви. В 2004 году Президент России Владимир Путин во время пребывания во Франции встретился с одним из старейших русских эмигрантов, последним подданным Российской империи, 82-летним Андреем Шмеманом, и вручил ему российский паспорт.
Доп. информация: Рип от kosta52
качество: SATRip
формат: AVI
Видео: XviD, 1200 Кбит/с, 704x512
Аудио: MP3, 2 ch, 128 Кбит/с

MediaInfo

Формат : AVIФормат/Информация : Audio Video InterleaveРазмер файла : 379 МбайтПродолжительность : 39 м.Общий поток : 1341 Кбит/секБиблиотека кодирования : TMPGEnc 4.0 XPress Version. 4.7.7.307
ВидеоИдентификатор : 0Формат : MPEG-4 VisualПрофиль формата : Simple@L1Параметр BVOP формата : НетПараметр QPel формата : НетПараметр GMC формата : Без точки переходаПараметр матрицы формата : Default (H.263)Идентификатор кодека : XVIDИдентификатор кодека/Подсказка : XviDПродолжительность : 39 м.Битрейт : 1200 Кбит/секШирина : 704 пикселяВысота : 512 пикселейСоотношение сторон : 1,375Частота кадров : 25,000 кадров/секЦветовое пространство : YUVСубдискретизация насыщенности : 4:2:0Битовая глубина : 8 битТип развёртки : ПрогрессивнаяМетод сжатия : С потерямиБит/(Пиксели*Кадры) : 0.133Размер потока : 339 Мбайт (89%)Библиотека кодирования : Lavc52.92.0
АудиоИдентификатор : 1Формат : MPEG AudioВерсия формата : Version 1Профиль формата : Layer 3Режим : Joint stereoРасширение режима : MS StereoИдентификатор кодека : 55Идентификатор кодека/Подсказка : MP3Продолжительность : 39 м.Вид битрейта : ПостоянныйБитрейт : 128 Кбит/секКаналы : 2 каналаЧастота : 48,0 КГцМетод сжатия : С потерямиРазмер потока : 36,2 Мбайт (10%)Выравнивание : Соединение по промежуткамПродолжительность промежутка : 40 мс. (1,00 видеокадр)Время предзагрузки промежутка : 384 мс.

Скриншоты

Не забывай говорить "Спасибо"
Пожалуйста не уходите с раздачи!
[teatrix.ru].t11561.torrent 
Торрент: Зарегистрирован [ 2015-12-07 17:45 ] · 478DA883430A9B0B8574E71F163FB6A0D368D851

Скачать .torrent

Скачать

15 KB

Статус: проверено
Скачан: 0 раз
Размер: 379 MB
terms.php



Быстрый ответ

Имя:

      
Для отправки сообщений необходимо включить JavaScript
Показать сообщения:    

Текущее время: 10-Дек 02:16

Часовой пояс: UTC + 3


Вы можете начинать темы
Вы можете отвечать на сообщения
Вы не можете редактировать свои сообщения
Вы не можете удалять свои сообщения
Вы не можете голосовать в опросах
Вы не можете прикреплять файлы к сообщениям
Вы можете скачивать файлы