Ленин. Красный император (Владимир Чернышёв) [19.01.2014, Документалистика, SATRip-AVC ]


Статистика раздачи [Обновить пиров]
Размер:  2.08 GB   |    Зарегистрирован:  11 месяцев 26 дней   |    Скачан:  0 раз

Полного источника не было: Никогда

Личеров:  5  [  0 KB/s  ]   Подробная статистика пиров
 
   
 
 
 

[Цитировать]

Ленин. Красный император
Дата/Год выпуска: 19.01.2014
Страна: Россия
Жанр: Документалистика
Продолжительность: 02:15:00 (135)
Перевод: Не требуется
Русские субтитры: нет
Оригинальная аудиодорожка: русский
Режиссер: Владимир Чернышёв
Телеканал: НТВ
Описание: Ленин… Это имя так затаскали в советские годы, а потом в годы перестройки, что личности не стало видно. От обожествления до ниспровержения, от гения до ничтожества – крайности оценок все дальше уводили от истины.
Больше двадцати лет спустя после распада СССР, в декабре 2013 года, в Киеве снесли памятник Ленину. А ведь казалось, что вождь мирового пролетариата окончательно ушел из эмоционального восприятия жителей бывшего Союза – в анекдоты ли, в мифы, в сухие строчки учебников, но ушел!
В январе 2014 года исполняется ровно девяносто лет со дня смерти человека, который почти на век определил курс страны.
Фильм обозревателя НТВ Владимира Чернышёва «Ленин. Красный император» – попытка взглянуть на эту фигуру без лишних эмоций, свойственных началу 90-х. Хорош он был или плох — это каждый может определить лично для себя. Но он был, и без него нет нашей истории, XX века наших родителей и XXI века новых поколений.
Как получилось, что кудрявый мальчик-отличник из хорошей семьи добропорядочного чиновника империи превратился в главного революционера человеческой истории? Почему протест против режима стал модным среди молодежи конца ХIХ века? Чего им не хватало, этим юношам и девушкам, покидавшим богатые имения родителей, и шедших метать бомбы в царя и губернаторов? И как вышло, что разрушитель империи, встав у власти, эту империю воссоздал и укрепил?
Чтобы ответить на эти и другие ключевые вопросы, съемочная группа посетила места, связанные с важными моментами жизни Ленина, – от роскошного дома в Симбирске-Ульяновске, через загородное имение Кокушкино и маленькую квартиру в Цюрихе, где 47-летний Владимир Ильич без всякой надежды на успех своих идей читал русские газеты февраля 17-го года, до Петрограда, Москвы и усадьбы Горки, где он мучительно умирал.
Доп. информация: автор фильма Владимир Чернышёв
Родился 12 апреля 1972 года в Москве. В 1994 году закончил факультет журналистики МГУ. В 1994–1996 гг. работал в информационном агентстве «Постфактум» и в программе «Городские новости» телекомпании ВКТ.
В 1996–2001 гг. — корреспондент информационной службы телекомпании НТВ.
В 2001–2002 гг. — обозреватель службы информации телекомпании ТВ-6.
С 2002 года — корреспондент службы информации НТВ. За годы работы в телекомпании делал репортажи для программ «Сегодня», «Итоги», «Намедни». Основная специализация — политика: все десять лет работы на НТВ прилежно наблюдал и пересказывал зрителям, как творилась новейшая история России — в кулуарах Думы, в кабинетах правительства и в коридорах Кремля. В 2007 году награжден медалью ордена «За заслуги перед Отечеством» I степени.
Автор и ведущий документального фильма «СССР. Крах империи».
Автор документального фильма «Эффект Домино. Февральская революция в судьбе России».
Автор и ведущий документального цикла «Сталин с нами» и документальных фильмов:
«Белый дом, черный дым»,
«Ленин. Красный император»,
«Железный еврей Сталина»,
«Хрущёв. Первый после Сталина»,
«Андропов. Между Дзержинским и Дон Кихотом».
Женат, воспитывает сына.
Отрывок из фильма (сэмпл): http://yadi.sk/d/FjjasGP4SFE7Q
качество: SATRip
формат: MKV
Видео: AVC, 1024х576, 16:9, 2000 Кбит/сек, 25,000 кадров/сек
Аудио: АС3, 192 Кбит/сек, 48,0 КГц, 2 канала

Список выпусков/серий

1-я серия
Личность Владимира Ильича Ленина все больше и больше отдалялась от современного общества, обрастала байками и анекдотами. Но оказалось, что мировой вождь был, есть и будет жить дальше, потому что народ по-прежнему неравнодушен к его персоне. Об этом свидетельствует тот факт, что спустя почти 90 лет после смерти Ленина в Киеве был разрушен его памятник. Что же для нас сегодня значит этот человек, образ которого искажен идеологией и личным представлением каждого?
2-я серия
Как встретили Владимира Ленина и его соратников в Петрограде? В обществе уже началась революционная эйфория – люди начали верить, что свобода обретена навсегда. Ленин собирался всем доказать свою правоту и за несколько месяцев превратил партию из узкой группы в открытую для тысяч новую организацию…
3-я серия
Выстрел Фанни Каплан и тысячи расстрелянных, красный террор и белая гвардия, смерть вождя и рождение мифа – в продолжении документального фильма о Владимире Ленине.

Информация о видеофайле (медиаинфо)

ОбщееУникальный идентификатор : 174167358708609636710462613489212151193 (0x830769C403629E4EB3575614EAA35599)Полное имя : F:\Загрузки\Ленин. Красный император\lenin.red.imperator.s01.MegaPeer.mkvФормат : MatroskaВерсия формата : Version 2Размер файла : 694 МбайтПродолжительность : 44 м.Режим общего битрейта : ПостоянныйОбщий поток : 2192 Кбит/секДата кодирования : UTC 2014-04-02 08:31:16Программа кодирования : mkvmerge v6.1.0 ('Old Devil') built on Mar 4 2013 09:10:42Библиотека кодирования : libebml v1.3.0 + libmatroska v1.4.0
ВидеоИдентификатор : 1Формат : AVCФормат/Информация : Advanced Video CodecПрофиль формата : Main@L3.1Параметр CABAC формата : ДаПараметр ReFrames формата : 2 кадраИдентификатор кодека : V_MPEG4/ISO/AVCПродолжительность : 44 м.Вид битрейта : ПостоянныйБитрейт : 2000 Кбит/секШирина : 1024 пикселяВысота : 576 пикселейСоотношение сторон : 16:9Режим частоты кадров : ПостоянныйЧастота кадров : 25,000 кадров/секЦветовое пространство : YUVСубдискретизация насыщенности : 4:2:0Битовая глубина : 8 битТип развёртки : ПрогрессивнаяБит/(Пиксели*Кадры) : 0.136Размер потока : 620 Мбайт (89%)Default : ДаForced : Нет
АудиоИдентификатор : 2Формат : AC-3Формат/Информация : Audio Coding 3Расширение режима : CM (complete main)Параметр Endianness формата : BigИдентификатор кодека : A_AC3Продолжительность : 44 м.Вид битрейта : ПостоянныйБитрейт : 192 Кбит/секКаналы : 2 каналаРасположение каналов : Front: L RЧастота : 48,0 КГцБитовая глубина : 16 битМетод сжатия : С потерямиРазмер потока : 60,8 Мбайт (9%)Default : ДаForced : Нет
Раздача отличается от существующих качеством - 1024х576.
[teatrix.ru].t11564.torrent 
Торрент: Зарегистрирован [ 2015-12-07 17:45 ] · F325D1F9B72E0B52B3EB67C792BD60E796702B67

Скачать .torrent

Скачать

11 KB

Статус: проверено
Скачан: 0 раз
Размер: 2.08 GB
terms.php



Быстрый ответ

Имя:

      
Для отправки сообщений необходимо включить JavaScript
Показать сообщения:    

Текущее время: 03-Дек 09:45

Часовой пояс: UTC + 3


Вы можете начинать темы
Вы можете отвечать на сообщения
Вы не можете редактировать свои сообщения
Вы не можете удалять свои сообщения
Вы не можете голосовать в опросах
Вы не можете прикреплять файлы к сообщениям
Вы можете скачивать файлы