Тело без головы или Бодибилдинг (А. Гутман) [1996, Документальный, TVRip]


Статистика раздачи [Обновить пиров]
Размер:  124 MB   |    Зарегистрирован:  1 год   |    Скачан:  0 раз

Полного источника не было: Никогда

Личеров:  5  [  0 KB/s  ]   Подробная статистика пиров
 
   
 
 
 

[Цитировать]

Тело без головы или Бодибилдинг
Дата/Год выпуска: 1996
Страна: Россия
Жанр: Документальный
Продолжительность: 00:17:05
Перевод: Не требуется
Доп. инфо о переводе: 24Док
Русские субтитры: нет
Оригинальная аудиодорожка: нет
Режиссер: А. Гутман
Телеканал: 24Док
Описание: Фильм рассказывает о человеке, который был моделью для огромного количества памятников советской эпохи, включая знаменитый монумент Веры Мухиной «Рабочий и Колхозница». Приз за лучший документальный фильм на МКФ в Цеска, Испания, 1996 Приз за лучший короткометражный фильм на КФ в Лиссабоне, Португалия, 1996 Специальный приз жюри на МКФ в Йорктоне, Канада, 1997
Доп. информация:
Сэмпл: http://yadi.sk/d/44wwh2PzRnExs
качество: TVRip
формат: AVI
Видео: Xvid/ 618х464 / 870 kbps / 23,976 кадра/сек
Аудио: MPEG Audio Layer 3 (MP3), 2 channels - Joint stereo, 48.0 kHz, 128 kbps

MediaInfo

ОбщееФормат : AVIФормат/Информация : Audio Video InterleaveРазмер файла : 124 МбайтПродолжительность : 17 м.Общий поток : 1015 Кбит/секПрограмма кодирования : VirtualDubMod 1.5.10.2 (build 2540/release)Библиотека кодирования : VirtualDubMod build 2540/release
ВидеоИдентификатор : 0Формат : MPEG-4 VisualПрофиль формата : Simple@L3Параметр BVOP формата : НетПараметр QPel формата : НетПараметр GMC формата : Без точки переходаПараметр матрицы формата : Default (H.263)Идентификатор кодека : DX50Идентификатор кодека/Подсказка : DivX 5Продолжительность : 17 м.Битрейт : 878 Кбит/секШирина : 618 пикселейВысота : 464 пикселяСоотношение сторон : 4:3Соотношение сторон в оригинале : 4:3Частота кадров : 23,976 кадра/секЦветовое пространство : YUVСубдискретизация насыщенности : 4:2:0Битовая глубина : 8 битТип развёртки : ПрогрессивнаяМетод сжатия : С потерямиБит/(Пиксели*Кадры) : 0.129Размер потока : 107 Мбайт (86%)Библиотека кодирования : XviD 73
АудиоИдентификатор : 1Формат : MPEG AudioВерсия формата : Version 1Профиль формата : Layer 3Режим : Joint stereoРасширение режима : MS StereoИдентификатор кодека : 55Идентификатор кодека/Подсказка : MP3Продолжительность : 17 м.Вид битрейта : ПостоянныйБитрейт : 128 Кбит/секКаналы : 2 каналаЧастота : 44,1 КГцМетод сжатия : С потерямиРазмер потока : 15,7 Мбайт (13%)Выравнивание : Разделение по промежуткамПродолжительность промежутка : 42 мс. (1,00 видеокадр)Время предзагрузки промежутка : 500 мс.Библиотека кодирования : LAME3.98.2

Скриншоты

[teatrix.ru].t11565.torrent 
Торрент: Зарегистрирован [ 2015-12-07 17:45 ] · FDB990A30391FCC136F1965120950F1AFE42505A

Скачать .torrent

Скачать

20 KB

Статус: проверено
Скачан: 0 раз
Размер: 124 MB
terms.php



Быстрый ответ

Имя:

      
Для отправки сообщений необходимо включить JavaScript
Показать сообщения:    

Текущее время: 10-Дек 04:05

Часовой пояс: UTC + 3


Вы можете начинать темы
Вы можете отвечать на сообщения
Вы не можете редактировать свои сообщения
Вы не можете удалять свои сообщения
Вы не можете голосовать в опросах
Вы не можете прикреплять файлы к сообщениям
Вы можете скачивать файлы