Вуди Аллен, Документальный фильм / Woody Allen, a Documentary (Роберт Б. Вайд / Robert B. Weide) [2012, документальный, SATRip]


Статистика раздачи [Обновить пиров]
Размер:  1.12 GB   |    Зарегистрирован:  11 месяцев   |    Скачан:  0 раз

Полного источника не было: Никогда

Личеров:  6  [  0 KB/s  ]   Подробная статистика пиров
 
   
 
 
 

[Цитировать]

Вуди Аллен, Документальный фильм / Woody Allen, a Documentary
Дата/Год выпуска: 2012
Страна: США
Жанр: документальный
Продолжительность: 1:13:00
Перевод: Субтитры
Доп. инфо о переводе: Перевод: Илья Вяземский Субтитры: Ульпаней Эльром
Русские субтитры: есть
Формат субтитров: hardsub (неотключаемые)
Доп. информация о субтитрах: русские
Режиссер: Роберт Б. Вайд / Robert B. Weide
Описание: Вуди Аллен - ироничный писатель, режиссер, актер, комик и музыкант впервые позволил задокументировать на камеру свою жизнь и творческий процесс. Лауреат премии Эмми и номинировавшийся на Оскар кинорежиссер Роберт Вайд в течении полутора лет создавал кинобиографию всемирно известной легенды кино. «Вуди Аллен: Документальный фильм» это хроника карьеры Аллена – со времен, когда он писал сценарии для комиков на телевидении, когда сам стал выступать комиком на сцене до всемирно признанного сценариста-режиссера выпускающего по фильму в год на протяжении 40 лет. Изучая писательские привычки Аллена, подбор актеров, режиссуру, его отношения с актерами, новые интервью с партнерами, друзьями и членами семьи автор фильма позволяет по новому взглянуть на обычно недоступного режиссера.
качество: SATRip
формат: AVI
Видео: XviD, 735-736 kb/s, 640x480, 25 fps, 0.096 bits/pixel
Аудио: 0x0055(MP3) ID'd as MPEG-1 Layer 3, 128 kb/s (2/ch, stereo) CBR, 48000 Hz - Английский

Список выпусков/серий

2 серии

MediaInfo

GeneralComplete name : E:\mp3\Woody Allen A Documentary\Woody.Allen,a.Documentary.1.SAT-rip.by.Твид.fenixclub.aviFormat : AVIFormat/Info : Audio Video InterleaveFile size : 654 MiBDuration : 1h 45mnOverall bit rate : 870 KbpsWriting application : VirtualDubMod 1.5.10.2 (build 2540/release)Writing library : VirtualDub build 24463/release
VideoID : 0Format : MPEG-4 VisualFormat profile : Advanced Simple@L5Format settings, BVOP : 2Format settings, QPel : NoFormat settings, GMC : No warppointsFormat settings, Matrix : Default (H.263)Muxing mode : Packed bitstreamCodec ID : XVIDCodec ID/Hint : XviDDuration : 1h 45mnBit rate : 733 KbpsWidth : 640 pixelsHeight : 480 pixelsDisplay aspect ratio : 4:3Frame rate : 25.000 fpsColor space : YUVChroma subsampling : 4:2:0Bit depth : 8 bitsScan type : ProgressiveCompression mode : LossyBits/(Pixel*Frame) : 0.095Stream size : 551 MiB (84%)Writing library : XviD 1.1.2 (UTC 2006-11-01)
AudioID : 1Format : MPEG AudioFormat version : Version 1Format profile : Layer 3Mode : Joint stereoCodec ID : 55Codec ID/Hint : MP3Duration : 1h 45mnBit rate mode : ConstantBit rate : 128 KbpsChannel(s) : 2 channelsSampling rate : 48.0 KHzCompression mode : LossyStream size : 96.2 MiB (15%)Alignment : Split accross interleavesInterleave, duration : 40 ms (1.00 video frame)Interleave, preload duration : 500 ms
GeneralComplete name : E:\mp3\Woody Allen A Documentary\Woody.Allen,a.Documentary.2.SAT-rip.by.Твид.fenixclub.aviFormat : AVIFormat/Info : Audio Video InterleaveFile size : 494 MiBDuration : 1h 19mnOverall bit rate : 869 KbpsWriting application : VirtualDubMod 1.5.10.2 (build 2540/release)Writing library : VirtualDub build 24463/release
VideoID : 0Format : MPEG-4 VisualFormat profile : Advanced Simple@L5Format settings, BVOP : 2Format settings, QPel : NoFormat settings, GMC : No warppointsFormat settings, Matrix : Default (H.263)Muxing mode : Packed bitstreamCodec ID : XVIDCodec ID/Hint : XviDDuration : 1h 19mnBit rate : 731 KbpsWidth : 640 pixelsHeight : 480 pixelsDisplay aspect ratio : 4:3Frame rate : 25.000 fpsColor space : YUVChroma subsampling : 4:2:0Bit depth : 8 bitsScan type : ProgressiveCompression mode : LossyBits/(Pixel*Frame) : 0.095Stream size : 416 MiB (84%)Writing library : XviD 1.1.2 (UTC 2006-11-01)
AudioID : 1Format : MPEG AudioFormat version : Version 1Format profile : Layer 3Mode : Joint stereoMode extension : MS StereoCodec ID : 55Codec ID/Hint : MP3Duration : 1h 19mnBit rate mode : ConstantBit rate : 128 KbpsChannel(s) : 2 channelsSampling rate : 48.0 KHzCompression mode : LossyStream size : 72.8 MiB (15%)Alignment : Split accross interleavesInterleave, duration : 40 ms (1.00 video frame)Interleave, preload duration : 500 ms

Скриншоты

[teatrix.ru].t11566.torrent 
Торрент: Зарегистрирован [ 2015-12-07 17:45 ] · 5B63305BCD5ADEDA0BFF74AB99D8B47704D877F0

Скачать .torrent

Скачать

12 KB

Статус: проверено
Скачан: 0 раз
Размер: 1.12 GB
terms.php



Быстрый ответ

Имя:

      
Для отправки сообщений необходимо включить JavaScript
Показать сообщения:    

Текущее время: 04-Дек 21:18

Часовой пояс: UTC + 3


Вы можете начинать темы
Вы можете отвечать на сообщения
Вы не можете редактировать свои сообщения
Вы не можете удалять свои сообщения
Вы не можете голосовать в опросах
Вы не можете прикреплять файлы к сообщениям
Вы можете скачивать файлы