[TR24][OF] Gustav Mahler - Symphonies Nos. 1-9 (London Symphony Orchestra, Valery Gergiev / Валерий Гергиев) - 2012 (Classical)


Статистика раздачи [Обновить пиров]
Размер:  5.95 GB   |    Зарегистрирован:  1 год   |    Скачан:  0 раз

Полного источника не было: Никогда

Личеров:  5  [  0 KB/s  ]   Подробная статистика пиров
 
   
 
 
 

[Цитировать]

Gustav Mahler
Symphonies Nos. 1-9
London Symphony Orchestra, Valery Gergiev
- Год издания: 2012
Жанр: Classical
Издатель(лейбл): LSO Live
Продолжительность: 10:54:13
Релизер: chuhonka (HDGeek)
Наличие сканов: Sleeve, Digital Booklet
-
(only Society of Sound membership)-Gustav Mahler (1860-1911)
Valery Gergiev, conductor
Joseph Cullen, conductor
London Symphony Orchestra
London Symphony Chorus
Tiffin Boys' Choir
Choral Arts Society Washington
Choir of Eltham College
Zlata Bulycheva, mezzo-soprano
Elena Mosuc, soprano
Anna Larsson, contralto
Laura Claycomb, coloratura soprano
Viktoria Yastrebova, soprano
Ailish Tynan, soprano
Liudmila Dudinova, soprano
Lilli Paasikivi, mezzo-soprano
Sergey Semishkur, tenor
Alexey Markov, baritone
Evgeny Nikitin, bass-baritone
Recorded between 2007-2011 at the Barbican in London, UK
(Symphony No. 8 recorded in St. Paul's Cathedral in London, UK)
-Контейнер: FLAC (*.flac)
Тип рипа: tracks
Разрядность: 24bit / 48kHz
Количество каналов: 2.0

Треклист-Disc 1 (00:52:43)
Symphony No. 1 in D major, 'Titan' (1884-88, rev 1893-96)
01. I. Langsam. Schleppend - Im Angang gemächlich (14:40)
02. II. Kräfig bewegt, doch nicht zu schnell - Trio: Recht gemächlich - Tempo primo (8:14)
03. III. Feierlich und gemessen, ohne zu schleppen (10:33)
04. IV. Stürmisch bewegt (19:16)
Disc 2 (01:17:45)
Symphony No. 2 in C minor, 'Resurrection' (1888-94)
01. I. Allegro maestoso (21:52)
02. II. Andante moderato (10:07)
03. III. In ruhig fliessender Bewegung (9:23)
04. IV. 'Urlicht': Sehr feierlich, aber schlicht (4:39)
05. V. Im Tempo des Scherzo (31:44)
Disc 3 (01:32:21)
Symphony No.3 in D minor (1895-96)
Part I
01. I. Kräftig. Entschieden (32:26)
02. II. Tempo di Menuetto. Grazioso (9:43)
Part II
03. III. Comodo. Scherzando. Ohne Hast (17:20)
04. IV. Sehr langsam. Misterioso (8:35)
05. V. Lustig im Tempo und keck im Ausdruck (3:51)
06. VI. Langsam. Ruhevoll. Empfunden (20:25)
Disc 4 (00:54:53)
Symphony No.4 in G major (1899-1900, rev 1901-10)
01. I. Bedächtig. Nicht eilen (16:10)
02. II. In gemächlicher Bewegung. Ohne Hast (9:51)
03. III. Ruhevoll (Poco adagio - Allegretto subito - Allegro subito) (18:50)
04. IV. Sehr behaglich ('Wir genießen die himmlischen Freuden') (10:02)
Disc 5 (01:10:46)
Symphony No.5 in C-sharp minor (1901-02)
01. I. Trauermarsch (13:20)
02. II. Stürmisch bewegt, mit größter Vehemenz (14:44)
03. III. Scherzo (17:27)
04. IV. Adagietto (10:35)
05. V. Rondo - Finale (14:41)
Disc 6 (01:17:16)
Symphony No.6 in A minor, 'Tragic' (1903-06)
01. I. Allegro energico, ma non troppo (21:59)
02. II. Andante moderato (13:53)
03. III Scherzo: Wuchtig (12:34)
04. IV. Finale: Allegro moderato (28:49)
Disc 7 (01:11:58)
Symphony No.7 in E minor (1904-05)
01. I. Langsam (Adagio) - Allegro con fuoco (20:52)
02. II. Nachtmusik: Allegro moderato (13:49)
03. III. Scherzo: Schattenhaft (9:13)
04. IV. Nachtmusik: Andante amoroso (11:51)
05. V. Rondo-Finale: Allegro ordinario - Allegro moderato ma energico (16:14)
Disc 8 (01:17:21)
Symphony No.8 in E-flat major, 'Symphony of a Thousand' (1906-07)
Part I - Hymnus: Veni, creator spiritus
01. I. Veni, creator spiritus (1:25)
02. II. Imple superna gratia (3:55)
03. III. Infirma nostri corporis (6:12)
04. IV. Accende lumen sensibus (4:44)
05. V. Veni, creator spiritus (3:48)
06. VI. Gloria Patri Domino (2:52)
Part II - Final Scene from Goethe's Faust
07. I. Poco adagio (12:31)
08. II. Ewiger Wonnerbrand (1:34)
09. III. Wie Falsenabgrund mir zu Füßen (4:31)
10. IV. Gerettet ist das edle Glied (3:09)
11. V. Uns bleibt ein Erdenrest (2:49)
12. VI. Höchste Herrscherin der Welt! (4:02)
13. VII. Dir, der Unberührbaren (3:37)
14. VIII. Bei der Liebe, die den Füßen (5:02)
15. IX. Neige, neige, du Ohnegleiche (4:13)
16. X. Komm! Hebe dich zu höhem Sphären (1:10)
17. XI. Blikket auf (6:17)
18. XII. Alles Vergängliche (5:30)
Disc 9 (01:19:11)
Symphony No.9 in D major (1909-10)
01. I. Andante comodo (27:01)
02. II. Im Tempo eines gemächlichen Ländlers. Etwas täppisch und sehr derb (15:09)
03. III. Rondo-Burleske: Allegro assai. Sehr trotzig (12:35)
04. IV. Adagio. Sehr langsam und noch zurückhaltend (24:25)
-

О релизе


Valery Gergiev’s performances and recordings of Mahler’s symphonies with the LSO have garnered international acclaim. They have performed the works in Europe, North America and the Far East and their recordings have received numerous awards. The symphonies were originally released between 2008 and 2011 and will now be made available together.
Gustav Mahler redefined the dimensions, structure, and possibilities for expression that the symphony offered. Neglected for decades after his untimely death, his symphonies are now universally regarded as among the greatest works of music. The themes of faith, love, tragedy and death run throughout the cycle of nine completed scores, effectively chronicling the career of one of the greatest composers on an epic scale.
"The sound is quite vivid and remarkable ... the LSO has never sounded better -- a fantastic orchestra!"
- Audiophile Audition

ОтчётыДинамический диапазон

foobar2000 1.2.2 / Dynamic Range Meter 1.1.1log date: 2015-02-20 18:46:58
--------------------------------------------------------------------------------Analyzed: London Symphony Orchestra, Valery Gergiev / Mahler: Symphony No.1 in D major, 'Titan' (1884-88, rev 1893-96)--------------------------------------------------------------------------------
DR Peak RMS Duration Track--------------------------------------------------------------------------------DR18 -2.54 dB -28.84 dB 14:40 ?-I. Langsam. Schleppend - Im Angang gemächlichDR16 -6.06 dB -28.83 dB 8:14 ?-II. Kräfig bewegt, doch nicht zu schnell - Trio: Recht gemächlich - Tempo primoDR16 -14.26 dB -37.81 dB 10:33 ?-III. Feierlich und gemessen, ohne zu schleppenDR17 -0.02 dB -23.92 dB 19:16 ?-IV. Stürmisch bewegt--------------------------------------------------------------------------------
Number of tracks: 4Official DR value: DR17
Samplerate: 48000 HzChannels: 2Bits per sample: 24Bitrate: 1304 kbpsCodec: FLAC================================================================================
foobar2000 1.2.2 / Dynamic Range Meter 1.1.1log date: 2015-02-20 18:48:44
--------------------------------------------------------------------------------Analyzed: London Symphony Orchestra, Valery Gergiev, Elena Mosuc, Zlata Bulycheva / Mahler: Symphony No.2 in C minor, 'Resurrection' (1888-94)--------------------------------------------------------------------------------
DR Peak RMS Duration Track--------------------------------------------------------------------------------DR18 0.00 dB -24.53 dB 21:52 ?-I. Allegro maestosoDR16 -7.19 dB -31.11 dB 10:07 ?-II. Andante moderatoDR19 0.00 dB -26.18 dB 9:23 ?-III. In ruhig fliessender BewegungDR14 -19.91 dB -40.15 dB 4:39 ?-IV. 'Urlicht': Sehr feierlich, aber schlichtDR16 0.00 dB -22.11 dB 31:44 ?-V. Im Tempo des Scherzo--------------------------------------------------------------------------------
Number of tracks: 5Official DR value: DR17
Samplerate: 48000 HzChannels: 2Bits per sample: 24Bitrate: 1297 kbpsCodec: FLAC================================================================================
foobar2000 1.2.2 / Dynamic Range Meter 1.1.1log date: 2015-02-20 18:51:56
--------------------------------------------------------------------------------Analyzed: London Symphony Orchestra, Valery Gergiev, Anna Larsson / Mahler: Symphony No.3 in D minor (1895-96)--------------------------------------------------------------------------------
DR Peak RMS Duration Track--------------------------------------------------------------------------------DR18 0.00 dB -23.81 dB 32:26 ?-Part I - I. Kräftig. EntschiedenDR17 -8.55 dB -33.25 dB 9:43 ?-Part I - II. Tempo di Menuetto. GraziosoDR19 -2.17 dB -28.46 dB 17:20 ?-Part II - III. Comodo. Scherzando. Ohne HastDR15 -14.95 dB -35.89 dB 8:35 ?-Part II - IV. Sehr langsam. MisteriosoDR13 -2.67 dB -26.45 dB 3:51 ?-Part II - V. Lustig im Tempo und keck im AusdruckDR16 -0.05 dB -23.09 dB 20:25 ?-Part II - VI. Langsam. Ruhevoll. Empfunden--------------------------------------------------------------------------------
Number of tracks: 6Official DR value: DR17
Samplerate: 48000 HzChannels: 2Bits per sample: 24Bitrate: 1315 kbpsCodec: FLAC================================================================================
foobar2000 1.2.2 / Dynamic Range Meter 1.1.1log date: 2015-02-20 18:53:01
--------------------------------------------------------------------------------Analyzed: London Symphony Orchestra, Valery Gergiev / Mahler: Symphony No.4 in G major (1899-1900, rev 1901-10)--------------------------------------------------------------------------------
DR Peak RMS Duration Track--------------------------------------------------------------------------------DR18 0.00 dB -26.40 dB 16:10 ?-I. Bedächtig. Nicht eilenDR16 -13.45 dB -34.68 dB 9:51 ?-II. In gemächlicher Bewegung. Ohne HastDR19 -1.04 dB -28.11 dB 18:50 ?-III. Ruhevoll (Poco adagio - Allegretto subito - Allegro subito)DR17 -6.63 dB -32.84 dB 10:02 ?-IV. Sehr behaglich ('Wir genießen die himmlischen Freuden')--------------------------------------------------------------------------------
Number of tracks: 4Official DR value: DR18
Samplerate: 48000 HzChannels: 2Bits per sample: 24Bitrate: 1190 kbpsCodec: FLAC================================================================================
foobar2000 1.2.2 / Dynamic Range Meter 1.1.1log date: 2015-02-20 18:54:39
--------------------------------------------------------------------------------Analyzed: London Symphony Orchestra, Valery Gergiev / Mahler: Symphony No.5 in C-sharp minor (1901-02)--------------------------------------------------------------------------------
DR Peak RMS Duration Track--------------------------------------------------------------------------------DR16 0.00 dB -25.36 dB 13:20 ?-I. TrauermarschDR16 -0.10 dB -24.79 dB 14:44 ?-II. Stürmisch bewegt, mit größter VehemenzDR17 -4.28 dB -28.70 dB 17:27 ?-III. ScherzoDR13 -14.03 dB -35.80 dB 10:35 ?-IV. AdagiettoDR16 -3.36 dB -26.07 dB 14:41 ?-V. Rondo - Finale--------------------------------------------------------------------------------
Number of tracks: 5Official DR value: DR16
Samplerate: 48000 HzChannels: 2Bits per sample: 24Bitrate: 1288 kbpsCodec: FLAC================================================================================
foobar2000 1.2.2 / Dynamic Range Meter 1.1.1log date: 2015-02-20 18:56:14
--------------------------------------------------------------------------------Analyzed: London Symphony Orchestra, Valery Gergiev / Mahler: Symphony No.6 in A minor, 'Tragic' (1903-06)--------------------------------------------------------------------------------
DR Peak RMS Duration Track--------------------------------------------------------------------------------DR17 -0.06 dB -22.06 dB 21:59 ?-I. Allegro energico, ma non troppoDR14 -3.60 dB -26.60 dB 13:53 ?-II. Andante moderatoDR16 -2.42 dB -25.31 dB 12:34 ?-III Scherzo: WuchtigDR17 0.00 dB -22.12 dB 28:49 ?-IV. Finale: Allegro moderato--------------------------------------------------------------------------------
Number of tracks: 4Official DR value: DR16
Samplerate: 48000 HzChannels: 2Bits per sample: 24Bitrate: 1352 kbpsCodec: FLAC================================================================================
foobar2000 1.2.2 / Dynamic Range Meter 1.1.1log date: 2015-02-20 18:57:42
--------------------------------------------------------------------------------Analyzed: London Symphony Orchestra, Valery Gergiev / Mahler: Symphony No.7 in E minor (1904-05)--------------------------------------------------------------------------------
DR Peak RMS Duration Track--------------------------------------------------------------------------------DR15 0.00 dB -19.88 dB 20:52 ?-I. Langsam (Adagio) - Allegro con fuocoDR18 -3.13 dB -27.77 dB 13:49 ?-II. Nachtmusik: Allegro moderatoDR16 -4.58 dB -26.26 dB 9:13 ?-III. Scherzo: SchattenhaftDR16 -8.48 dB -30.50 dB 11:51 ?-IV. Nachtmusik: Andante amorosoDR14 0.00 dB -19.45 dB 16:14 ?-V. Rondo-Finale: Allegro ordinario - Allegro moderato ma energico--------------------------------------------------------------------------------
Number of tracks: 5Official DR value: DR16
Samplerate: 48000 HzChannels: 2Bits per sample: 24Bitrate: 1436 kbpsCodec: FLAC================================================================================
foobar2000 1.2.2 / Dynamic Range Meter 1.1.1log date: 2015-02-20 18:58:58
--------------------------------------------------------------------------------Analyzed: London Symphony Orchestra, Valery Gergiev, Viktoria Yastrebova, Ailish Tynan, Liudmila Dudinova, Lilli Paasikivi, Zlata Bulycheva, Sergei Semishkur, Alexey Markov, Evgeny Nikitin / Mahler: Symphony No.8 in E-flat major, 'Symphony of a Thousand' (1906-07)--------------------------------------------------------------------------------
DR Peak RMS Duration Track--------------------------------------------------------------------------------DR12 -6.63 dB -22.42 dB 1:25 ?-Part I - I. Veni, creator spiritusDR14 -5.73 dB -26.60 dB 3:55 ?-Part I - II. Imple superna gratiaDR16 -9.36 dB -31.97 dB 6:12 ?-Part I - III. Infirma nostri corporisDR13 -4.50 dB -20.49 dB 4:44 ?-Part I - IV. Accende lumen sensibusDR13 -4.50 dB -22.72 dB 3:48 ?-Part I - V. Veni, creator spiritusDR10 -4.50 dB -18.71 dB 2:52 ?-Part I - VI. Gloria Patri DominoDR14 -10.95 dB -31.59 dB 12:31 ?-Part II - I. Poco adagioDR12 -12.17 dB -31.34 dB 1:34 ?-Part II - II. Ewiger WonnerbrandDR13 -10.34 dB -28.98 dB 4:31 ?-Part II - III. Wie Falsenabgrund mir zu FüßenDR13 -8.28 dB -27.08 dB 3:09 ?-Part II - IV. Gerettet ist das edle GliedDR15 -9.98 dB -31.88 dB 2:49 ?-Part II - V. Uns bleibt ein ErdenrestDR15 -10.67 dB -32.26 dB 4:02 ?-Part II - VI. Höchste Herrscherin der Welt!DR13 -5.75 dB -31.42 dB 3:37 ?-Part II - VII. Dir, der UnberührbarenDR15 -13.39 dB -33.74 dB 5:02 ?-Part II - VIII. Bei der Liebe, die den FüßenDR14 -10.14 dB -30.82 dB 4:13 ?-Part II - IX. Neige, neige, du OhnegleicheDR9 -22.56 dB -40.90 dB 1:10 ?-Part II - X. Komm! Hebe dich zu höhem SphärenDR15 -4.50 dB -27.33 dB 6:17 ?-Part II - XI. Blikket aufDR8 -4.50 dB -18.35 dB 5:30 ?-Part II - XII. Alles Vergängliche--------------------------------------------------------------------------------
Number of tracks: 18Official DR value: DR13
Samplerate: 48000 HzChannels: 2Bits per sample: 24Bitrate: 1403 kbpsCodec: FLAC================================================================================
foobar2000 1.2.2 / Dynamic Range Meter 1.1.1log date: 2015-02-20 18:59:55
--------------------------------------------------------------------------------Analyzed: London Symphony Orchestra, Valery Gergiev / Mahler: Symphony No.9 in D major (1909-10)--------------------------------------------------------------------------------
DR Peak RMS Duration Track--------------------------------------------------------------------------------DR18 0.00 dB -23.85 dB 27:01 ?-I. Andante comodoDR17 -1.51 dB -25.93 dB 15:09 ?-II. Im Tempo eines gemächlichen Ländlers. Etwas täppisch und sehr derbDR18 0.00 dB -23.33 dB 12:35 ?-III. Rondo-Burleske: Allegro assai. Sehr trotzigDR17 0.00 dB -26.05 dB 24:25 ?-IV. Adagio. Sehr langsam und noch zurückhaltend--------------------------------------------------------------------------------
Number of tracks: 4Official DR value: DR18
Samplerate: 48000 HzChannels: 2Bits per sample: 24Bitrate: 1285 kbpsCodec: FLAC================================================================================

Скриншоты спектра частот

Доп. информация

При скачивании, если необходимо, переименуйте папку, в которой будет находиться альбомБольшая просьба к скачавшим поддерживать раздачу! Помогайте другим, ведь вам тоже может понадобиться помощь!Не забываем говорить "Спасибо"!Комментарии приветствуются!
[teatrix.ru].t11571.torrent 
Торрент: Зарегистрирован [ 2015-12-07 17:45 ] · 8CDC3F288B0B7F4E0FF56C0571AD0233A5BFB0A7

Скачать .torrent

Скачать

41 KB

Статус: проверено
Скачан: 0 раз
Размер: 5.95 GB
terms.php



Быстрый ответ

Имя:

      
Для отправки сообщений необходимо включить JavaScript
Показать сообщения:    

Текущее время: 08-Дек 07:09

Часовой пояс: UTC + 3


Вы можете начинать темы
Вы можете отвечать на сообщения
Вы не можете редактировать свои сообщения
Вы не можете удалять свои сообщения
Вы не можете голосовать в опросах
Вы не можете прикреплять файлы к сообщениям
Вы можете скачивать файлы