[TR24][OF] Felicien David - Le Desert / Фелисьен Давид - Пустыня - Orchestre de Chambre de Paris, conducted by Laurence Equilbey - 2015, (Classical, Ode-Symphony)


Статистика раздачи [Обновить пиров]
Размер:  935 MB   |    Зарегистрирован:  1 год   |    Скачан:  0 раз
Сидов:  1  [  0 KB/s  ]   Личеров:  5  [  0 KB/s  ]   Подробная статистика пиров
 
   
 
 
 

[Цитировать]

Félicien David - Le Désert / Фелисьен Давид - Пустыня - Orchestre de Chambre de Paris, conducted by Laurence Equilbey
Формат записи/Источник записи: [TR24][OF]
Наличие водяных знаков: Нет
Год издания/переиздания диска: 2015
Жанр: Classical, Ode-Symphony
Издатель(лейбл): Naïve
Продолжительность: 01:34:02
Исполнители:
Cyrille Dubois, tenor (tracks 4,7),
Zachary Wilder, tenor (track 9),
Jean-Marie Winling, speaker, (disc 2),
Accentus Chorus,
Orchestre de Chambre de Paris,
Laurence Equilbey, conductor.

Тhe Recording's Information

Conducted by Laurence Equilbey and featuring the renowned Accentus choir and Orchestre de Chambre de Paris, this new recording of one of the French masterpieces of the mid-19th century is a real discovery. French composer Félicien David spent 4 years in Egypt and Algeria before returning to Paris, where he composed this romantic 'ode symphonie' which pandered to the popular orientalist trend and was a huge success throughout Europe. Born in 1810, Félicien David's voyage took him to Egypt and Algeria between 1831 and 1835. He returned to his homeland with the intention of ‘singing of the East’ to French ears and making a name for himself as a composer in Paris - at that time, the musical crossroads of Europe. In December 1844, David reached the heights of fame when his ode-symphonie 'Le Désert' was given at the Théâtre-Italien.

Треклист

Disc 1:
Première partie:1. L'entrée au désert
2. Marche de la caravane
3. La tempête au désert
Deuxième partie:
4. Hymne à la nuit
5. Fantaisie arabe - danse des almé
6. La liberté au désert
7. La rêverie du soir
Troisième partie:
8. Le lever du soleil
9. Chant du muezzin
10. Le départ de la caravane
11. Chant du désert
Disc 2:
Première partie:1. L'entrée au désert II
2. Marche de la caravane II
3. La tempête au désert II
Deuxième partie:
4. Hymne à la nuit II
5. Fantaisie arabe - danse des almé II
6. La liberté au désert II
7. La rêverie du soir II
Troisième partie:
8. Le lever du soleil II
9. Chant du muezzin II
10. Le départ de la caravane II
11. Chant du désert II

Dynamic Range Meter

foobar2000 1.3.6 / Замер динамического диапазона (DR) 1.1.1
Дата отчёта: 2015-08-03 21:07:30
--------------------------------------------------------------------------------
Анализ: Félicien David, Composer - Orchestre de chambre de Paris, Main Artist, Orchestra - Accentus, Ensemble, Main Artist - Laurence Equilbey, Conductor, Main Artist - Public Domain / Orchestre de Chambre de Paris - Accentus - Laurence Equilbey : David: Le Désert
--------------------------------------------------------------------------------
DR Пики RMS Продолжительность трека
--------------------------------------------------------------------------------
DR10 0.00 дБ -16.02 дБ 8:31 01-Le Désert, Première partie: L'entrée au désert
DR13 0.00 дБ -19.05 дБ 4:25 02-Le Désert, Première partie: Marche de la caravane
DR10 0.00 дБ -13.06 дБ 3:47 03-Le Désert, Première partie: La tempête au désert
DR15 -5.23 дБ -25.40 дБ 6:57 04-Le Désert, Deuxième partie: Hymne à la nuit
DR15 -0.59 дБ -21.99 дБ 3:41 05-Le Désert, Deuxième partie: Fantaisie arabe – Danse des almé
DR12 0.00 дБ -16.20 дБ 1:38 06-Le Désert, Deuxième partie: La liberté au désert
DR12 -6.76 дБ -24.13 дБ 3:32 07-Le Désert, Deuxième partie: La rêverie du soir
DR11 0.00 дБ -18.94 дБ 2:39 08-Le Désert, Troisième partie: Le lever du soleil
DR11 -7.92 дБ -24.18 дБ 2:39 09-Le Désert, Troisième partie: Chant du muezzin
DR12 0.00 дБ -18.87 дБ 2:53 10-Le Désert, Troisième partie: Le départ de la caravane
DR11 0.00 дБ -15.73 дБ 4:17 11-Le Désert, Troisième partie: Chant du désert
DR10 0.00 дБ -16.57 дБ 9:40 01-Le Désert, Première partie: L'entrée au désert II
DR13 0.00 дБ -19.39 дБ 4:39 02-Le Désert, Première partie: Marche de la caravane II
DR10 0.00 дБ -13.26 дБ 4:18 03-Le Désert, Première partie: La tempête au désert II
DR15 -5.23 дБ -25.57 дБ 7:14 04-Le Désert, Deuxième partie: Hymne à la nuit II
DR15 -0.59 дБ -21.99 дБ 3:41 05-Le Désert, Deuxième partie: Fantaisie arabe – Danse des almé II
DR12 0.00 дБ -16.20 дБ 1:38 06-Le Désert, Deuxième partie: La liberté au désert II
DR12 -6.76 дБ -24.13 дБ 3:32 07-Le Désert, Deuxième partie: La rêverie du soir II
DR12 0.00 дБ -19.39 дБ 2:55 08-Le Désert, Troisième partie: Le lever du soleil II
DR11 -7.92 дБ -24.18 дБ 2:39 09-Le Désert, Troisième partie: Chant du muezzin II
DR13 0.00 дБ -18.78 дБ 3:47 10-Le Désert, Troisième partie: Le départ de la caravane II
DR11 0.00 дБ -16.17 дБ 5:05 11-Le Désert, Troisième partie: Chant du désert II
--------------------------------------------------------------------------------
Количество треков: 22
Реальные значения DR: DR12
Частота: 48000 Гц
Каналов: 2
Разрядность: 24
Битрейт: 1406 кбит/с
Кодек: FLAC
================================================================================
Контейнер: FLAC (*.flac)
Тип рипа: tracks
Разрядность: 24/48
Количество каналов: 2.0
Источник: qobuz
[teatrix.ru].t11572.torrent 
Торрент: Зарегистрирован [ 2015-12-07 17:45 ] · 5BA79EBCA0990302257D62E63A727E34B5E86B61

Скачать .torrent

Скачать

21 KB

Статус: проверено
Скачан: 0 раз
Размер: 935 MB
terms.php



Быстрый ответ

Имя:

      
Для отправки сообщений необходимо включить JavaScript
Показать сообщения:    

Текущее время: 07-Дек 19:25

Часовой пояс: UTC + 3


Вы можете начинать темы
Вы можете отвечать на сообщения
Вы не можете редактировать свои сообщения
Вы не можете удалять свои сообщения
Вы не можете голосовать в опросах
Вы не можете прикреплять файлы к сообщениям
Вы можете скачивать файлы