[TR24][SM][OF] John Adams - The Gospel According To The Other Mary - Los Angeles Master Chorale, Gustavo Dudamel & Los Angeles Philharmonic - 2014 (Classical)


Статистика раздачи [Обновить пиров]
Размер:  2.38 GB   |    Зарегистрирован:  1 год   |    Скачан:  0 раз

Полного источника не было: Никогда

Личеров:  4  [  0 KB/s  ]   Подробная статистика пиров
 
   
 
 
 

[Цитировать]

John Adams (1947 - )
Формат записи/Источник записи: [TR24][SM][OF]
Наличие водяных знаков: Нет
Издание: 479 2484
Год издания/переиздания диска: 2014
Жанр: Classical
Издатель(лейбл): Deutsche Grammophon
Продолжительность: 02:12:45
Наличие сканов в содержимом раздачи: Да
Контейнер: FLAC (*.flac)
Тип рипа: tracks
Разрядность: 24/96
Формат: WAV (flac.ape.wv)
Количество каналов: 2.0
http://www.prestoclassical.co.uk/r/DG/4792243#download

Треклист

A PASSION ORATORIO IN TWO ACTS World-premiere recording
ACT I SCENE 1: JAIL / HOUSE OF HOSPITALITY
01. The Next Day In The City Jail We Were Searched For Drugs 04:09
02. Now A Certain Woman Named Martha Welcomed Him Into Her House 02:44
ACT I SCENE 2: MARY
03. And She Had A Sister Named Mary 01:41
04. I Am Surprised That I Am Beginning To Pray Daily 03:26
05. Chorus - En un dia de amor 04:17
ACT I SCENE 3: LAZARUS
06. Now A Certain Man Was Sick, Named Lazarus 04:01
07. Lazarus Dies 02:04
08. Why Standest Thou Afar Off, Lord? 02:27
09. In My Own Quietly Explosive Here 02:51
10. Don’t Touch My Left Arm! 01:51
11. When Mary Was Come Where Jesus Was 03:42
12. Jesus Said, Take Ye Away The Stone 01:52
13. Lazarus Rises From The Dead 04:19
14. Chorus - Drop Down, Ye Heavens 03:08
ACT I SCENE 4: SUPPER AT BETHANY
15. Supper At Bethany 00:43
16. For The Grave Cannot Praise Thee 06:39
17. Mary Washes The Feet Of Jesus 04:46
ACT I SCENE 5: PASSOVER
18. And There Were Some Who Had Indignation Within Themselves 01:40
19. We Know There Will Be No Utopias 05:20
20. Tell Me - How Is This Night Different From All Other Night? 09:29

ACT II
21. Chorus - Who Rips His Flesh Down The Seams 03:49
ACT II SCENE 1: POLICE RAID
22. Arrest Of Jesus 05:40
ACT II SCENE 2: ARREST OF THE WOMEN
23. Arrest Of The Women 02:26
24. Up At Two A.M., Picketed All Day 01:29
25. The Said Defendants, On Or About August 2nd 02:54
26. Prayer Of The Mexican Women 03:02
ACT II SCENE 3: GOLGOTHA
27. Golgotha 06:14
28. Daughters Of Jerusalem, Weep Not For Me 03:03
29. Now There Stood At The Cross Of Jesus 01:27
30. When Jesus Saw His Mother 02:13
ACT II SCENE 4: NIGHT
31. Night 07:35
32. His Son Cried Out To Him 01:32
ACT II SCENE 5: BURIAL / SPRING
33. The Sepulchre - Mary’s Awakening 04:35
34. Mary Awakes At Dawn 02:08
35. Chorus - It Is Spring 04:02
ACT II SCENE 6: EARTHQUAKE AND RECOGNITION
36. Earthquake And Recognition 03:18
37. Why Seek Ye The Living Among The Dead? 06:25

Состав

Mary Magdalene . . . . . . . . . . . . . . . . . . . . . . . . . . . . . . . . . KELLEY O’CONNOR
Martha . . . . . . . . . . . . . . . . . . . . . . . . . . . . . . . . . . . . . . . .TAMARA MUMFORD
Lazarus . . . . . . . . . . . . . . . . . . . . . . . . . . . . . . . . . . . . . . . .RUSSELL THOMAS
Countertenors . . . . . . . . DANIEL BUBECK | BRIAN CUMMINGS | NATHAN MEDLEY
LOS ANGELES MASTER CHORALE
Grant Gershon Music Director
LOS ANGELES PHILHARMONIC
GUSTAVO DUDAMEL
Directed by Peter Sellars

Dynamic Range Meter

foobar2000 1.2.6 / Dynamic Range Meter 1.1.1
log date: 2015-02-12 22:20:14
--------------------------------------------------------------------------------
Analyzed: Brian Cummings, Daniel Bubeck, Nathan Medley, Kelley O'Connor, Los Angeles Master Chorale, Los Angeles Philharmonic / J. Adams: The Gospel According To The Other Mary (1)
Brian Cummings, Daniel Bubeck, Nathan Medley, Kelley O'Connor, Los Angeles Philharmonic / J. Adams: The Gospel According To The Other Mary (2)
Brian Cummings, Daniel Bubeck, Nathan Medley, Los Angeles Master Chorale, Los Angeles Philharmonic / J. Adams: The Gospel According To The Other Mary (3)
Brian Cummings, Daniel Bubeck, Nathan Medley, Los Angeles Philharmonic / J. Adams: The Gospel According To The Other Mary (4-6)
Brian Cummings, Daniel Bubeck, Nathan Medley, Tamara Mumford, Los Angeles Philharmonic / J. Adams: The Gospel According To The Other Mary (7-8)
Kelley O'Connor, Los Angeles Master Chorale, Los Angeles Philharmonic / J. Adams: The Gospel According To The Other Mary (9)
Kelley O'Connor, Los Angeles Philharmonic / J. Adams: The Gospel According To The Other Mary (10-11)
Kelley O'Connor, Tamara Mumford, Brian Cummings, Daniel Bubeck, Nathan Medley, Los Angeles Philharmonic / J. Adams: The Gospel According To The Other Mary (12)
Los Angeles Master Chorale, Los Angeles Philharmonic / J. Adams: The Gospel According To The Other Mary (13-14)
Los Angeles Philharmonic / J. Adams: The Gospel According To The Other Mary (15)
Russell Thomas, Brian Cummings, Daniel Bubeck, Nathan Medley, Los Angeles Philharmonic / J. Adams: The Gospel According To The Other Mary (16)
Russell Thomas, Los Angeles Philharmonic / J. Adams: The Gospel According To The Other Mary (17-18)
Tamara Mumford, Brian Cummings, Daniel Bubeck, Nathan Medley, Los Angeles Philharmonic / J. Adams: The Gospel According To The Other Mary (19-20)
--------------------------------------------------------------------------------
DR Peak RMS Duration Track
--------------------------------------------------------------------------------
DR13 -0.59 dB -19.56 dB 4:46 17-Act 1, Scene 4, Supper At Bethany: 'Then Took Mary A Pound Of Ointment'
DR13 -9.47 dB -28.43 dB 3:42 11-Act 1, Scene 3, Lazarus: 'When Mary Was Come Where Jesus Was'
DR14 -3.34 dB -25.06 dB 1:52 12-Act 1, Scene 3, Lazarus: 'Jesus Said, Take Ye Away The Stone'
DR14 -10.93 dB -30.42 dB 4:01 06-Act 1, Scene 3, Lazarus: 'Now A Certain Man Was Sick'
DR14 -4.85 dB -28.38 dB 4:19 13-Act 1, Scene 3, Lazarus: 'And When He Thus Had Spoken'
DR13 -13.08 dB -30.31 dB 0:43 15-Act 1, Scene 4, Supper At Bethany: 'Then Jesus Six Days Before The Passover'
DR15 -12.15 dB -31.39 dB 2:44 02-Act 1, Scene 1, Jail/House Of Hospitality: 'Now A Certain Woman Named Martha'
DR13 -13.77 dB -31.09 dB 1:41 03-Act 1, Scene 2, Mary: 'And She Had A Sister Named Mary'
DR14 -3.15 dB -21.11 dB 4:09 01-Act 1, Scene 1, Jail/House Of Hospitality: 'The Next Day In The City Jail'
DR13 -12.86 dB -31.74 dB 3:26 04-Act 1, Scene 2, Mary: 'I Am Surprised That I Am Beginning To Pray Daily'
DR12 -9.14 dB -25.03 dB 1:51 10-Act 1, Scene 3, Lazarus: 'Don’t Touch My Left Arm'
DR14 -6.12 dB -26.26 dB 2:51 09-Act 1, Scene 3, Lazarus: 'In My Own Quietly Explosive Here'
DR16 -5.78 dB -27.17 dB 4:17 05-Act 1, Scene 2, Mary: 'En un día de amor yo bajé hasta la tierra'
DR13 -4.10 dB -24.46 dB 3:08 14-Act 1, Scene 3, Lazarus: 'Drop Down, Ye Heavens, From Above'
DR11 -11.16 dB -27.59 dB 2:04 07-Act 1, Scene 3, Lazarus: Lazarus Dies While The Sisters Await Jesus
DR14 -10.31 dB -29.78 dB 1:40 18-Act 1, Scene 5, Passover: 'And There Were Some That Had Indignation'
DR14 -4.43 dB -21.77 dB 6:39 16-Act 1, Scene 4, Supper At Bethany: 'For The Grave Cannot Praise Thee'
DR17 -3.63 dB -26.09 dB 9:29 20-Act 1, Scene 5, Passover: 'Tell Me: How Is This Night Different'
DR14 -10.54 dB -29.81 dB 2:27 08-Act 1, Scene 3, Lazarus: 'Why Standest Thou Afar Off, O Lord?'
DR18 -6.91 dB -29.80 dB 5:20 19-Act 1, Scene 5, Passover: 'We Know There Will Be No Utopias'
--------------------------------------------------------------------------------
Number of tracks: 20
Official DR value: DR14
Samplerate: 96000 Hz
Channels: 2
Bits per sample: 24
Bitrate: 2456 kbps
Codec: FLAC
================================================================================
foobar2000 1.2.6 / Dynamic Range Meter 1.1.1
log date: 2015-02-12 22:20:14
--------------------------------------------------------------------------------
Analyzed: Brian Cummings, Daniel Bubeck, Nathan Medley, Kelley O'Connor, Los Angeles Master Chorale, Los Angeles Philharmonic / J. Adams: The Gospel According To The Other Mary (1)
Brian Cummings, Daniel Bubeck, Nathan Medley, Kelley O'Connor, Los Angeles Philharmonic / J. Adams: The Gospel According To The Other Mary (2)
Brian Cummings, Daniel Bubeck, Nathan Medley, Los Angeles Master Chorale, Los Angeles Philharmonic / J. Adams: The Gospel According To The Other Mary (3)
Brian Cummings, Daniel Bubeck, Nathan Medley, Los Angeles Philharmonic / J. Adams: The Gospel According To The Other Mary (4-6)
Brian Cummings, Daniel Bubeck, Nathan Medley, Tamara Mumford, Los Angeles Philharmonic / J. Adams: The Gospel According To The Other Mary (7-8)
Kelley O'Connor, Los Angeles Master Chorale, Los Angeles Philharmonic / J. Adams: The Gospel According To The Other Mary (9)
Kelley O'Connor, Los Angeles Philharmonic / J. Adams: The Gospel According To The Other Mary (10-11)
Kelley O'Connor, Tamara Mumford, Brian Cummings, Daniel Bubeck, Nathan Medley, Los Angeles Philharmonic / J. Adams: The Gospel According To The Other Mary (12)
Los Angeles Master Chorale, Los Angeles Philharmonic / J. Adams: The Gospel According To The Other Mary (13-14)
Los Angeles Philharmonic / J. Adams: The Gospel According To The Other Mary (15)
Russell Thomas, Brian Cummings, Daniel Bubeck, Nathan Medley, Los Angeles Philharmonic / J. Adams: The Gospel According To The Other Mary (16)
Russell Thomas, Los Angeles Philharmonic / J. Adams: The Gospel According To The Other Mary (17-18)
Tamara Mumford, Brian Cummings, Daniel Bubeck, Nathan Medley, Los Angeles Philharmonic / J. Adams: The Gospel According To The Other Mary (19-20)
--------------------------------------------------------------------------------
DR Peak RMS Duration Track
--------------------------------------------------------------------------------
DR13 -0.59 dB -19.56 dB 4:46 17-Act 1, Scene 4, Supper At Bethany: 'Then Took Mary A Pound Of Ointment'
DR13 -9.47 dB -28.43 dB 3:42 11-Act 1, Scene 3, Lazarus: 'When Mary Was Come Where Jesus Was'
DR14 -3.34 dB -25.06 dB 1:52 12-Act 1, Scene 3, Lazarus: 'Jesus Said, Take Ye Away The Stone'
DR14 -10.93 dB -30.42 dB 4:01 06-Act 1, Scene 3, Lazarus: 'Now A Certain Man Was Sick'
DR14 -4.85 dB -28.38 dB 4:19 13-Act 1, Scene 3, Lazarus: 'And When He Thus Had Spoken'
DR13 -13.08 dB -30.31 dB 0:43 15-Act 1, Scene 4, Supper At Bethany: 'Then Jesus Six Days Before The Passover'
DR15 -12.15 dB -31.39 dB 2:44 02-Act 1, Scene 1, Jail/House Of Hospitality: 'Now A Certain Woman Named Martha'
DR13 -13.77 dB -31.09 dB 1:41 03-Act 1, Scene 2, Mary: 'And She Had A Sister Named Mary'
DR14 -3.15 dB -21.11 dB 4:09 01-Act 1, Scene 1, Jail/House Of Hospitality: 'The Next Day In The City Jail'
DR13 -12.86 dB -31.74 dB 3:26 04-Act 1, Scene 2, Mary: 'I Am Surprised That I Am Beginning To Pray Daily'
DR12 -9.14 dB -25.03 dB 1:51 10-Act 1, Scene 3, Lazarus: 'Don’t Touch My Left Arm'
DR14 -6.12 dB -26.26 dB 2:51 09-Act 1, Scene 3, Lazarus: 'In My Own Quietly Explosive Here'
DR16 -5.78 dB -27.17 dB 4:17 05-Act 1, Scene 2, Mary: 'En un día de amor yo bajé hasta la tierra'
DR13 -4.10 dB -24.46 dB 3:08 14-Act 1, Scene 3, Lazarus: 'Drop Down, Ye Heavens, From Above'
DR11 -11.16 dB -27.59 dB 2:04 07-Act 1, Scene 3, Lazarus: Lazarus Dies While The Sisters Await Jesus
DR14 -10.31 dB -29.78 dB 1:40 18-Act 1, Scene 5, Passover: 'And There Were Some That Had Indignation'
DR14 -4.43 dB -21.77 dB 6:39 16-Act 1, Scene 4, Supper At Bethany: 'For The Grave Cannot Praise Thee'
DR17 -3.63 dB -26.09 dB 9:29 20-Act 1, Scene 5, Passover: 'Tell Me: How Is This Night Different'
DR14 -10.54 dB -29.81 dB 2:27 08-Act 1, Scene 3, Lazarus: 'Why Standest Thou Afar Off, O Lord?'
DR18 -6.91 dB -29.80 dB 5:20 19-Act 1, Scene 5, Passover: 'We Know There Will Be No Utopias'
--------------------------------------------------------------------------------
Number of tracks: 20
Official DR value: DR14
Samplerate: 96000 Hz
Channels: 2
Bits per sample: 24
Bitrate: 2456 kbps
Codec: FLAC
================================================================================
[teatrix.ru].t11574.torrent 
Торрент: Зарегистрирован [ 2015-12-07 17:45 ] · 164468B4451E5E1A94013634E4D5AEB763DD0795

Скачать .torrent

Скачать

17 KB

Статус: проверено
Скачан: 0 раз
Размер: 2.38 GB
terms.php



Быстрый ответ

Имя:

      
Для отправки сообщений необходимо включить JavaScript
Показать сообщения:    

Текущее время: 08-Дек 03:08

Часовой пояс: UTC + 3


Вы можете начинать темы
Вы можете отвечать на сообщения
Вы не можете редактировать свои сообщения
Вы не можете удалять свои сообщения
Вы не можете голосовать в опросах
Вы не можете прикреплять файлы к сообщениям
Вы можете скачивать файлы