[TR24][SM][OF] Antoine Brumel - Missa de beata virgine & Motets - Stephen Rice & The Brabant Ensemble - 2014 (Classical)


Статистика раздачи [Обновить пиров]
Размер:  1.1 GB   |    Зарегистрирован:  1 год   |    Скачан:  0 раз

Полного источника не было: Никогда

Личеров:  4  [  0 KB/s  ]   Подробная статистика пиров
 
   
 
 
 

[Цитировать]

Antoine Brumel (c1460-1512/13)
Формат записи/Источник записи: [TR24][SM][OF]
Наличие водяных знаков: Нет
Издание: CDA68065
Год издания/переиздания диска: 2014
Жанр: Classical
Издатель(лейбл): Hyperion Records
Продолжительность: 01:03:56
Наличие сканов в содержимом раздачи: Да
Треклист:
1 Nato canunt omnia [8'19]
2 Beata es, Maria [4'11]
3 Lauda Sion salvatorem [14'03]
4 Ave caelorum domina [4'04]
Missa de beata virgine
5 Kyrie [4'14]
6 Gloria [7'35]
7 Credo [9'15]
8 Sanctus and Benedictus [6'59]
9 Agnus Dei [5'16]
Контейнер: FLAC (*.flac)
Тип рипа: tracks
Разрядность: 24/96
Формат: WAV (flac.ape.wv)
Количество каналов: 2.0
http://www.hyperion-records.co.uk/dc.asp?dc=D_CDA68065

Состав

The Brabant Ensemble
Stephen Rice conductor

Dynamic Range Meter

foobar2000 1.2.6 / Dynamic Range Meter 1.1.1
log date: 2015-02-11 20:48:40
--------------------------------------------------------------------------------
Analyzed: Stephen Rice, The Brabant Ensemble / Brumel: Missa de beata virgine & motets
--------------------------------------------------------------------------------
DR Peak RMS Duration Track
--------------------------------------------------------------------------------
DR15 -1.34 dB -21.36 dB 8:20 01-Nato canunt omnia
DR14 -6.07 dB -26.03 dB 4:12 02-Beata es, Maria
DR14 -3.90 dB -24.75 dB 14:04 03-Lauda Sion salvatorem
DR11 -10.15 dB -28.62 dB 4:05 04-Ave caelorum domina
DR13 -5.50 dB -24.43 dB 4:14 05-Missa de beata virgine - I. Kyrie
DR14 -3.85 dB -22.86 dB 7:36 06-Missa de beata virgine - II. Gloria
DR13 -5.21 dB -24.17 dB 9:16 07-Missa de beata virgine - III. Credo
DR14 -3.31 dB -22.56 dB 7:00 08-Missa de beata virgine - IV. Sanctus and Benedictus
DR14 -4.78 dB -25.42 dB 5:16 09-Missa de beata virgine - V. Agnus Dei
--------------------------------------------------------------------------------
Number of tracks: 9
Official DR value: DR14
Samplerate: 96000 Hz
Channels: 2
Bits per sample: 24
Bitrate: 2392 kbps
Codec: FLAC
================================================================================
[teatrix.ru].t11576.torrent 
Торрент: Зарегистрирован [ 2015-12-07 17:45 ] · C8D82955B1F82464BAA61F7C0E885C5C83FAC818

Скачать .torrent

Скачать

12 KB

Статус: проверено
Скачан: 0 раз
Размер: 1.1 GB
terms.php



Быстрый ответ

Имя:

      
Для отправки сообщений необходимо включить JavaScript
Показать сообщения:    

Текущее время: 10-Дек 17:45

Часовой пояс: UTC + 3


Вы можете начинать темы
Вы можете отвечать на сообщения
Вы не можете редактировать свои сообщения
Вы не можете удалять свои сообщения
Вы не можете голосовать в опросах
Вы не можете прикреплять файлы к сообщениям
Вы можете скачивать файлы