[TR24][SM][OF] Tobias Hume & Eric Fischer - Poeticall Musicke...Topographic Long-Range - Marianne Muller, Liam Fennelly, Pau Marcos - 2010 (Classical)


Статистика раздачи [Обновить пиров]
Размер:  1.16 GB   |    Зарегистрирован:  1 год   |    Скачан:  0 раз

Полного источника не было: Никогда

Личеров:  4  [  0 KB/s  ]   Подробная статистика пиров
 
   
 
 
 

[Цитировать]

Tobias Hume (1569-1645)
Формат записи/Источник записи: [TR24][SM][OF]
Наличие водяных знаков: Нет
Издание: ZZT100501
Год издания/переиздания диска: 2010
Жанр: Classical
Издатель(лейбл): Zig-Zag Territoires
Продолжительность: 01:12:48
Наличие сканов в содержимом раздачи: Да
Треклист:
Tobias Hume
The first part Ayres (1605)
1. Captaine Humes Pavan (M. Muller)
2. A Soldier's Gaillard (M. Muller)
Captaine Humes poeticall musicke (1607)
3. What Greater Griefe: premier couplet (L. Fennelly, M. Muller, P. Marcos)
The first part Ayres (1605)
4. A Question (M. Muller)
5. An Answere (M. Muller)
The first part Ayres (1605)
6. Touch me sweetly (L. Fennelly, M. Muller)
Captaine Humes poeticall musicke (1607)
7. The Virgins Muse (M. Muller, L. Fennelly, P. Marcos)
8. Musicke and Mirth (M. Muller, P. Marcos, L. Fennelly)
The first part Ayres (1605)
9. Tinckeldum Twinckeldum (M. Muller)
Captaine Humes poeticall musicke (1607)
10. Sweet Musicke (M. Muller, P. Marcos, L. Fennelly)
The first part Ayres (1605)
11. Good Again (M. Muller)
Eric Fischer
"Topographic Long-Range" (2008)
12. Premier duo: Rock (L. Fennelly, M. Muller)
"Les Geosophiques" (M. Muller)
13. Sources
14. Concordancia discordancium canonum
15. Medius
16. De l’abrupt
17. Coda
18. Deuxième duo (P. Marcos, M. Muller)
19. "La clepsydre" (L. Fennelly, P. Marcos, M. Muller)
Tobias Hume
Captaine Humes poeticall musicke (1607)
20. What Greater Griefe: deuxième couplet (L. Fennelly, M. Muller, P. Marcos)
Контейнер: FLAC (*.flac)
Тип рипа: tracks
Разрядность: 24/88,2
Формат: WAV (flac.ape.wv)
Количество каналов: 2.0
Источник (релизер): WEB

Состав

Marianne Muller viole de gambe
Pau Marcos viole de gambe
Liam Fennelly viole de gambe

Dynamic Range Meter

foobar2000 1.2.6 / Dynamic Range Meter 1.1.1
log date: 2015-02-08 22:33:13
--------------------------------------------------------------------------------
Analyzed: Marianne Muller, Liam Fennelly / Tobias Hume, Eric Fischer: Poeticall Musicke - Topographic Long-Range (1-2)
Marianne Muller, Pau Marcos, Liam Fennelly / Tobias Hume, Eric Fischer: Poeticall Musicke - Topographic Long-Range (3-8)
Marianne Muller, Pau Marcos / Tobias Hume, Eric Fischer: Poeticall Musicke - Topographic Long-Range (9)
Marianne Muller / Tobias Hume, Eric Fischer: Poeticall Musicke - Topographic Long-Range (10-20)
--------------------------------------------------------------------------------
DR Peak RMS Duration Track
--------------------------------------------------------------------------------
DR12 -7.20 dB -23.14 dB 1:52 06-Touch me sweetly
DR13 -1.13 dB -18.89 dB 4:37 12-Premier duo: Rock
DR12 -2.85 dB -19.42 dB 2:19 03-What Greater Griefe: premier couplet
DR11 -5.05 dB -20.39 dB 5:51 07-The Virgins Muse
DR12 -4.26 dB -19.95 dB 3:20 08-Musicke and Mirth
DR11 -4.05 dB -19.60 dB 6:56 10-Sweet Musicke
DR15 -2.57 dB -29.80 dB 3:57 19-La clepsydre
DR13 -4.92 dB -22.05 dB 2:40 20-What Greater Griefe: deuxième couplet
DR14 -4.50 dB -24.55 dB 3:23 18-Deuxième duo
DR15 -4.63 dB -23.65 dB 7:30 01-Captaine Humes Pavan
DR12 -7.59 dB -23.17 dB 1:33 02-A Soldier's Gaillard
DR11 -7.57 dB -22.61 dB 1:53 04-A Question
DR12 -6.17 dB -23.63 dB 3:32 05-An Answere
DR10 -8.30 dB -23.04 dB 1:29 09-Tinckeldum Twinckeldum
DR13 -5.51 dB -23.51 dB 4:45 11-Good Again
DR17 -0.22 dB -25.36 dB 2:02 13-Geosophique Sources
DR14 -0.72 dB -19.87 dB 5:19 14-Geosophique Concordancia discordancium
DR12 -7.88 dB -27.91 dB 2:10 15-Geosophique Medius
DR16 -0.13 dB -22.86 dB 5:14 16-Geosophique De l’abrupt
DR18 -8.45 dB -32.51 dB 2:28 17-Geosophique Coda
--------------------------------------------------------------------------------
Number of tracks: 20
Official DR value: DR13
Samplerate: 88200 Hz
Channels: 2
Bits per sample: 24
Bitrate: 1920 kbps
Codec: FLAC
================================================================================
[teatrix.ru].t11578.torrent 
Торрент: Зарегистрирован [ 2015-12-07 17:45 ] · 08F5EE7EF106B4A9D82EF9EE10901DF42ADF8E4D

Скачать .torrent

Скачать

13 KB

Статус: проверено
Скачан: 0 раз
Размер: 1.16 GB
terms.php



Быстрый ответ

Имя:

      
Для отправки сообщений необходимо включить JavaScript
Показать сообщения:    

Текущее время: 08-Дек 09:05

Часовой пояс: UTC + 3


Вы можете начинать темы
Вы можете отвечать на сообщения
Вы не можете редактировать свои сообщения
Вы не можете удалять свои сообщения
Вы не можете голосовать в опросах
Вы не можете прикреплять файлы к сообщениям
Вы можете скачивать файлы