[TR24][OF] Gabriel Fauré (Faure) - Piano Music (Angela Hewitt) - 2013 (Classical, Piano)


Статистика раздачи [Обновить пиров]
Размер:  575 MB   |    Зарегистрирован:  1 год   |    Скачан:  1 раз

Полного источника не было: 18 дней

Личеров:  4  [  0 KB/s  ]   Подробная статистика пиров
 
   
 
 
 

[Цитировать]

Gabriel Fauré
Piano Music
Angela Hewitt
- Год издания: 2013
Жанр: Classical, Piano
Издатель (лейбл): Hyperion Records
Продолжительность: 01:12:49
Наличие сканов: Sleeve, Digital Booklet
- -
Gabriel Fauré (1845-1924)
Theme et variations, Op 73
01. Theme (1:58)
02. Variation 1. L'istesso tempo (0:58)
03. Variation 2. Piu mosso (0:53)
04. Variation 3. Un poco piu mosso (0:48)
05. Variation 4. L'istesso tempo (1:25)
06. Variation 5. Un poco piu mosso (0:48)
07. Variation 6. Molto adagio (1:50)
08. Variation 7. Allegro moderato (0:52)
09. Variation 8. Andante molto moderato (1:28)
10. Variation 9. Quasi adagio (1:17)
11. Variation 10. Allegro vivo (1:16)
12. Variation 11. Andante molto, moderato espressivo (2:47)
13. Valse-caprice No 1 in A major, Op 30 (7:22)
14. Valse-caprice No 2 in D flat major, Op 38 (7:43)
15. Nocturne No 5 in B flat major, Op 37 (8:35)
16. Nocturne No 6 in D flat major, Op 63 (9:12)
17. Nocturne No 13 in B minor, Op 119 (8:29)
18. Ballade pour piano seul, Op 19 (15:06)
-Angela Hewitt, piano
Recorded: August 2012 at Jesus-Christus-Kirche, Berlin, Germany
-Контейнер: FLAC (*.flac)
Тип рипа: tracks
Разрядность: 24bit / 44.1kHz
Количество каналов: 2.0
-

О релизе


Angela Hewitt’s recordings of French piano music have received the highest critical acclaim, her ‘tenderness, Gallic wit, verve, and—the most important ingredient of all—charm’ proving perfect for works by Chabrier, Debussy, Ravel and indeed Rameau and Couperin. Now she turns to a composer who is more serious and introspective, with a refinement that has led to him being relatively overlooked by performers. But in Angela Hewitt’s hands this music is an utter joy.
This album includes the major work Thème et variations, Op 73—one of Faure’s greatest works for piano—and a selection of Valses-caprices and Nocturnes. It ends with a more radiant piece from Fauré’s youth, the earliest piece included on this recording—the Ballade pour piano seul, Op 19, dedicated to Saint-Saëns.
'Hewitt's way with the Valses-caprices is scintillating and extrovert, most notably in the second waltz's swing-high, swing-low teasing sophistication … she is notably sensitive, too, to the openings of Nocturnes Nos 6 and 13, and to the latter's anguished utterance … Hewitt's excellently recorded disc (as bright as the playing) provides an invigorating modern alternative' --Gramophone
'Take a French composer with a contrapuntal bent, whose music requires a rigour, poise and nuance akin to that of a ballet dancer. Then choose a pianist, such as Angela Hewitt, whose feel for all these qualities is a given. The result is an exquisite Fauré recital … Hewitt's clarity is exemplary. The purity and strong, supple backbone of her playing lets Fauré's inventive genius, his extraordinary sensitivity to colour, harmonic shading, texture and eloquence, shine on its own terms' --BBC Music Magazine

ОтчётыДинамический диапазон

foobar2000 1.2.2 / Dynamic Range Meter 1.1.1log date: 2015-02-08 18:34:17
--------------------------------------------------------------------------------Analyzed: Angela Hewitt / Faure: Piano Music--------------------------------------------------------------------------------
DR Peak RMS Duration Track--------------------------------------------------------------------------------DR13 -2.41 dB -19.94 dB 1:58 ?-Theme et variations, Op 73 - ThemeDR11 -13.60 dB -28.71 dB 0:58 ?-Theme et variations, Op 73 - Variation 1. L'istesso tempoDR11 -3.77 dB -19.31 dB 0:53 ?-Theme et variations, Op 73 - Variation 2. Piu mossoDR11 -0.80 dB -16.18 dB 0:48 ?-Theme et variations, Op 73 - Variation 3. Un poco piu mossoDR10 -4.27 dB -17.77 dB 1:25 ?-Theme et variations, Op 73 - Variation 4. L'istesso tempoDR11 -5.41 dB -20.23 dB 0:48 ?-Theme et variations, Op 73 - Variation 5. Un poco piu mossoDR12 -6.95 dB -26.48 dB 1:50 ?-Theme et variations, Op 73 - Variation 6. Molto adagioDR11 -2.10 dB -20.02 dB 0:52 ?-Theme et variations, Op 73 - Variation 7. Allegro moderatoDR12 -11.35 dB -28.11 dB 1:28 ?-Theme et variations, Op 73 - Variation 8. Andante molto moderatoDR12 -4.23 dB -23.36 dB 1:17 ?-Theme et variations, Op 73 - Variation 9. Quasi adagioDR11 -0.80 dB -16.34 dB 1:16 ?-Theme et variations, Op 73 - Variation 10. Allegro vivoDR15 -0.87 dB -23.28 dB 2:47 ?-Theme et variations, Op 73 - Variation 11. Andante molto, moderato espressivoDR12 -0.80 dB -18.41 dB 7:22 ?-Valse-caprice No 1 in A major, Op 30DR12 -0.80 dB -18.48 dB 7:43 ?-Valse-caprice No 2 in D flat major, Op 38DR14 -0.80 dB -21.12 dB 8:35 ?-Nocturne No 5 in B flat major, Op 37DR15 -0.80 dB -20.67 dB 9:12 ?-Nocturne No 6 in D flat major, Op 63DR13 -1.73 dB -20.87 dB 8:29 ?-Nocturne No 13 in B minor, Op 119DR14 -0.80 dB -20.32 dB 15:06 ?-Ballade pour piano seul, Op 19--------------------------------------------------------------------------------
Number of tracks: 18Official DR value: DR12
Samplerate: 44100 HzChannels: 2Bits per sample: 24Bitrate: 1082 kbpsCodec: FLAC================================================================================

Скриншот спектра частот

Доп. информация

При скачивании, если необходимо, переименуйте папку, в которой будет находиться альбомБольшая просьба к скачавшим поддерживать раздачу! Помогайте другим, ведь вам тоже может понадобиться помощь!Не забываем говорить "Спасибо"!Комментарии приветствуются!
[teatrix.ru].t11579.torrent 
Торрент: Зарегистрирован [ 2015-12-07 17:45 ] · 692A9128E1A599858A4A9C5931AAC4DCF898CAE2

Скачать .torrent

Скачать

13 KB

Статус: проверено
Скачан: 1 раз
Размер: 575 MB
terms.php



Быстрый ответ

Имя:

      
Для отправки сообщений необходимо включить JavaScript
Показать сообщения:    

Текущее время: 09-Дек 03:05

Часовой пояс: UTC + 3


Вы можете начинать темы
Вы можете отвечать на сообщения
Вы не можете редактировать свои сообщения
Вы не можете удалять свои сообщения
Вы не можете голосовать в опросах
Вы не можете прикреплять файлы к сообщениям
Вы можете скачивать файлы