[TR24][OF] Wolfgang Amadeus Mozart - Keyboard Music Vol. 7 (Piano Sonatas K. 284, 310; Variations K. 180, 264) - Kristian Bezuidenhout - 2015 (Classical, Piano)


Статистика раздачи [Обновить пиров]
Размер:  1.27 GB   |    Зарегистрирован:  1 год   |    Скачан:  0 раз

Полного источника не было: Никогда

Личеров:  4  [  0 KB/s  ]   Подробная статистика пиров
 
   
 
 
 

[Цитировать]

Wolfgang Amadeus Mozart
Keyboard Music Vol. 7
Kristian Bezuidenhout
- Год издания: 2015
Жанр: Classical, Piano
Издатель (лейбл): Harmonia Mundi
Продолжительность: 01:12:52
Наличие сканов: Sleeve, Digital Booklet
- -
Wolfgang Amadeus Mozart (1756-1791)
9 Variations on “Lison dormait” in C Major, K. 264 (1778)
01. 9 Variations on “Lison dormait” in C Major, K. 264 (16:29)
Sonata in A Minor, K. 310 (1778)
02. I. Allegro maestoso (5:31)
03. II. Andante cantabile con expressione (9:26)
04. III. Presto (3:07)
6 Variations on “Mio caro Adone” in G Major, K. 180 (1773)
05. 6 Variations on “Mio caro Adone” in G Major, K. 180 (8:37)
Sonata in D Major, K. 284 (1774)
06. I. Allegro (7:26)
07. II. Rondeau en polonaise: Andante (4:46)
08. III. Thema: Andante. Vars. I-XII (17:30)
-Контейнер: FLAC (*.flac)
Тип рипа: tracks
Разрядность: 24bit / 88.2kHz
Количество каналов: 2.0
-О релизе

Fortepianist Kristian Bezuidenhout continues his multi-disc survey of Mozart's music for solo keyboard with volume seven of the series. The first six have been met with universal critical acclaim from around the world. This program of explores the elegance and drama that are ever-present in Mozart's music. Most notably Bezuidenhout performs two works influenced by the composer's 1778 stay in Paris - the grandly proportioned Sonata in A minor, K. 310 and the dazzling Variations in C on "Lison dormait", K.264.
Mozart’s solo keyboard music inhabits a somewhat isolated corner. Great Mozartians from Clifford Curzon to Alfred Brendel to Clara Haskil left surprisingly few recordings of the solo sonatas and variations, which is why Kristian Bezuidenhout’s mandate to record all of them on fortepiano for Harmonia Mundi catches the attention. Hearing the discs themselves, one can hardly take one’s ears off the performances because they go so far inside the music and reverse much of what you thought you knew.
Bezuidenhout seems to piggyback lesser works (variations) on to major ones (sonatas) by juxtaposing them together, paired according to similar chronology, revealing moments of synchronicity as well as dramatic leaps in Mozart’s evolution, such as on Vol 7 when the 1773 Six Variations on ‘Mio caro Adone’ in G major, K180, are followed, in 1774, by the gargantuan theme-and-variations final movement of the Piano Sonata in D major, K284, showing Mozart working with an invention and rigour that almost sound like another composer. Elsewhere, though, Mozart’s freewheeling variations, at least in these performances, are doorways into the composer’s psyche in ways that the more formal, polished sonatas are not. The variations were like Mozart’s secret garden, offering glimpses of his improvisatory spirit. Dare I say that Beethoven’s Diabelli Variations came to mind repeatedly in these three volumes?
‘When Mozart played a simple scale,’ wrote Wanda Landowska, quoting the composer’s contemporaries, ‘it became transformed into a cavatina.’ That sums up the Bezuidenhout difference. His typical Mozartian attributes include firm command of structure, great instincts for sympathetic tempi and a technique refined enough to get at the tiniest details – in contrast to Paul Badura-Skoda’s more forceful but generalised fortepiano sonorities (Gramola). More distinctively, Bezuidenhout’s elastic tempi give him room to probe for meaning but also allow panache that’s so much a part of Mozart’s buoyant temperament and prompts some delightfully elongated final cadences. Not only does one hear the notes with more transparency than on a modern instrument but one also gets a stronger sense of Mozart’s larger world. Bezuidenhout’s stealth weapon, though, may be the unequal temperament of his copy of an 1805 Anton Walter instrument. The popular notion that equal temperament reigned exclusively after JS Bach just isn’t true. Experiments with alternative tuning – I’m thinking of Peter Serkin playing late Beethoven – can be colouristic revelations, which is also true of Bezuidenhout. So if you can only afford one volume of this series, which would it be? I refuse to say. Hear them all. --David Patrick Stearns, Gramophone

ОтчётыДинамический диапазон

foobar2000 1.2.2 / Dynamic Range Meter 1.1.1log date: 2015-02-06 19:20:34
--------------------------------------------------------------------------------Analyzed: Kristian Bezuidenhout / Mozart: Keyboard Music Vol. 7--------------------------------------------------------------------------------
DR Peak RMS Duration Track--------------------------------------------------------------------------------DR15 -1.83 dB -21.97 dB 16:29 ?-9 Variations on “Lison dormait” in C Major, K. 264 (1778)DR14 -0.08 dB -17.78 dB 5:31 ?-Sonata in A Minor, K. 310 (1778) - I. Allegro maestosoDR15 -1.19 dB -22.52 dB 9:26 ?-Sonata in A Minor, K. 310 (1778) - II. Andante cantabile con expressioneDR14 -0.08 dB -19.17 dB 3:07 ?-Sonata in A Minor, K. 310 (1778) - III. PrestoDR15 -4.83 dB -24.45 dB 8:37 ?-6 Variations on “Mio caro Adone” in G Major, K. 180 (1773)DR14 -2.56 dB -20.24 dB 7:26 ?-Sonata in D Major, K. 284 (1774) - I. AllegroDR14 -7.75 dB -25.96 dB 4:46 ?-Sonata in D Major, K. 284 (1774) - II. Rondeau en polonaise: AndanteDR15 -3.80 dB -22.93 dB 17:30 ?-Sonata in D Major, K. 284 (1774) - III. Thema: Andante. Vars. I-XII--------------------------------------------------------------------------------
Number of tracks: 8Official DR value: DR14
Samplerate: 88200 HzChannels: 2Bits per sample: 24Bitrate: 2469 kbpsCodec: FLAC================================================================================

Скриншот спектра частот

Доп. информация

При скачивании, если необходимо, переименуйте папку, в которой будет находиться альбомБольшая просьба к скачавшим поддерживать раздачу! Помогайте другим, ведь вам тоже может понадобиться помощь!Не забываем говорить "Спасибо"!Комментарии приветствуются!
[teatrix.ru].t11580.torrent 
Торрент: Зарегистрирован [ 2015-12-07 17:45 ] · D3D50B59BA4A8BD60E1E0E4461B7F27FF32A7AD8

Скачать .torrent

Скачать

14 KB

Статус: проверено
Скачан: 0 раз
Размер: 1.27 GB
terms.php



Быстрый ответ

Имя:

      
Для отправки сообщений необходимо включить JavaScript
Показать сообщения:    

Текущее время: 09-Дек 22:24

Часовой пояс: UTC + 3


Вы можете начинать темы
Вы можете отвечать на сообщения
Вы не можете редактировать свои сообщения
Вы не можете удалять свои сообщения
Вы не можете голосовать в опросах
Вы не можете прикреплять файлы к сообщениям
Вы можете скачивать файлы