[TR24][SM][OF] de Morales, Lobo, Guerrero, de Tejeda - From Spain to Eternity : The Sacred Polyphony of El Greco\'s Toledo (Ensemble Plus Ultra) - 2014 (Classical)


Статистика раздачи [Обновить пиров]
Размер:  1.19 GB   |    Зарегистрирован:  1 год   |    Скачан:  0 раз

Полного источника не было: Никогда

Личеров:  6  [  0 KB/s  ]   Подробная статистика пиров
 
   
 
 
 

[Цитировать]

Alonso Lobo (c. 1555 - 1617)
Cristóbal de Morales (c. 1500 - 1553)
Francisco Guerrero (1528 - 1599)
Alonso de Tejeda (c. 1540 - 1628)


Формат записи/Источник записи: [TR24][SM][OF]
Наличие водяных знаков: Нет
Издание: 479 2610
Год издания/переиздания диска: 2014
Жанр: Classical
Издатель(лейбл): DG Archiv
Продолжительность: 01:10:32
Наличие сканов в содержимом раздачи: Да
Треклист:
ALONSO LOBO
1 Versa est in luctum 5:16
Motet a 6 from Liber primus missarum (Madrid, 1602)
ed. Edward Tambling
CRISTÓBAL DE MORALES
2 Clamabat autem mulier Chananea 3:37
Infra hebdomadam I quadragesimae
Motet a 5 for the first week of Lent
ed. Nancho Álvarez
FRANCISCO GUERRERO
3 Prudentes virgines 4:48
Motet a 5 from Motteta (Venice, 1570)
ed. Nancho Álvarez
ALONSO LOBO
Missa “Prudentes virgines” a 5
from Liber primus missarum
ed. Bruno Turner
4 Kyrie 3:45
5 Gloria 5:34
6 Credo 7:45
7 Sanctus 3:26
8 Benedictus 2:38
9 Agnus Dei 6:08
CRISTÓBAL DE MORALES
10 Quanti mercenarii 5:24
Infra hebdomadam II quadragesimae
Motet a 6 for the second week of Lent
ed. Nancho Álvarez
ALONSO DE TEJEDA
11 Rex autem David 4:40
Motet a 5 from Liber secundus sacrarum cantionum
ed. Jorge Martín
CRISTÓBAL DE MORALES
12 Expandit Sion manus suas 10:33
Lamentation a 6
ed. Martin Ham
ALONSO DE TEJEDA
13 Miserere mei, Deus 3:36
Motet a 5 from Liber secundus sacrarum cantionum
ed. Jorge Martín
ALONSO LOBO
14 Ave, Regina coelorum 3:27
Antiphon a 6 from Liber primus missarum
ed. David Martin
Контейнер: FLAC (*.flac)
Тип рипа: tracks
Разрядность: 24/96
Формат: WAV (flac.ape.wv)
Количество каналов: 2.0
http://www.prestoclassical.co.uk/r/DG%2BArchiv/4792610#download-

ENSEMBLE PLUS ULTRA


Grace Davidson, Julie Cooper soprano
Clare Wilkinson mezzo-soprano
David Martin countertenor
William Balkwill, Simon Wall tenor
Robert Evans baritone
Jimmy Holliday bass

Dynamic Range Meter

foobar2000 1.2.6 / Dynamic Range Meter 1.1.1
log date: 2015-02-05 00:10:17
--------------------------------------------------------------------------------
Analyzed: Ensemble Plus Ultra / From Spain to Eternity - The Sacred Polyphony of El Greco's Toledo
--------------------------------------------------------------------------------
DR Peak RMS Duration Track
--------------------------------------------------------------------------------
DR13 -1.82 dB -22.01 dB 5:16 01-Versa est in luctum
DR13 -1.37 dB -20.53 dB 3:37 02-Clamabat autem mulier Chananea
DR12 -2.70 dB -21.65 dB 4:48 03-Prudentes virgines
DR12 -7.73 dB -24.54 dB 3:45 04-Missa 'Prudentes virgines' a 5: Kyrie
DR13 -5.33 dB -23.69 dB 5:34 05-Missa 'Prudentes virgines' a 5: Gloria
DR13 -6.19 dB -23.71 dB 7:45 06-Missa 'Prudentes virgines' a 5: Credo
DR12 -6.70 dB -22.01 dB 3:26 07-Missa 'Prudentes virgines' a 5: Sanctus
DR12 -5.39 dB -23.48 dB 2:38 08-Missa 'Prudentes virgines' a 5: Benedictus
DR12 -5.61 dB -23.20 dB 6:08 09-Missa 'Prudentes virgines' a 5: Agnus Dei
DR13 -4.89 dB -22.77 dB 5:24 10-Quanti mercernarii
DR12 -8.27 dB -24.79 dB 4:40 11-Rex autem David
DR12 -8.59 dB -25.39 dB 10:33 12-Expandit Sion manus suas
DR13 -7.94 dB -25.38 dB 3:36 13-Miserere mei, Deus
DR12 -3.36 dB -20.18 dB 3:27 14-Ave regina coelorum
--------------------------------------------------------------------------------
Number of tracks: 14
Official DR value: DR12
Samplerate: 96000 Hz
Channels: 2
Bits per sample: 24
Bitrate: 2379 kbps
Codec: FLAC
================================================================================
[teatrix.ru].t11582.torrent 
Торрент: Зарегистрирован [ 2015-12-07 17:45 ] · CF271292DAF8DCEA7656B667C9F98D0E255FC5D4

Скачать .torrent

Скачать

13 KB

Статус: проверено
Скачан: 0 раз
Размер: 1.19 GB
terms.php



Быстрый ответ

Имя:

      
Для отправки сообщений необходимо включить JavaScript
Показать сообщения:    

Текущее время: 11-Дек 09:06

Часовой пояс: UTC + 3


Вы можете начинать темы
Вы можете отвечать на сообщения
Вы не можете редактировать свои сообщения
Вы не можете удалять свои сообщения
Вы не можете голосовать в опросах
Вы не можете прикреплять файлы к сообщениям
Вы можете скачивать файлы