[TR24][SM][OF] Schumann & Brahms - Fantasiestucke • Kreisleriana & Theme and Variations from String Sextet No.1 - Imogen Cooper - 2013 (Classical)


Статистика раздачи [Обновить пиров]
Размер:  1.14 GB   |    Зарегистрирован:  11 месяцев 27 дней   |    Скачан:  0 раз

Полного источника не было: Никогда

Личеров:  5  [  0 KB/s  ]   Подробная статистика пиров
 
   
 
 
 

[Цитировать]

Schumann & Brahms: Piano Works

Формат записи/Источник записи: [TR24][SM][OF]
Наличие водяных знаков: Нет
Издание: CHAN 10755
Год издания/переиздания диска: 2013
Жанр: Classical, Keyboard
Издатель(лейбл): Chandos Records Ltd
Продолжительность: 01:15:31
Наличие сканов в содержимом раздачи: cover + booklet
Треклист:
Robert Schumann (1810 – 1856)
Fantasiestücke, Op. 12 (1837) 29:13
(Fantasy Pieces)
Miß Anna Robena Laidlaw zugeeignet
1 Des Abends (Evening). Sehr innig zu spielen 3:37
2 Aufschwung (Soaring). Sehr rasch 3:24
3 Warum? (Why?). Langsam und zart 2:44
4 Grillen (Whims). Mit Humor 3:45
5 In der Nacht (In the Night). Mit Leidenschaft – Etwas langsamer –
Tempo I 4:29
6 Fabel (Fable). Langsam – Schnell – Langsam – Schnell –
Tempo I [Schnell] – Langsam 2:46
7 Traumes Wirren (Restless Dreams). Äußerst lebhaft 2:47
8 Ende vom Lied (The End of the Story). Mit gutem Humor –
Etwas lebhafter – Tempo I 5:33
Johannes Brahms (1833 – 1897)
9 Theme and Variations (1859) 10:29
in D minor • in d-Moll • en ré mineur
from String Sextet No. 1, Op. 18 (1859 – 60)
in B flat major • in B-Dur • en si bémol majeur
Arranged by the composer for solo piano
Für Clara Schumann gesetzt: Zum 13. September 1860 als freundlichen Gruß
Andante, ma moderato
Robert Schumann
Kreisleriana, Op. 16 (1838) 35:43
Fantasien
(Fantasies)
Seinem Freunde Herrn F. Chopin zugeeignet
10 1 Äußerst bewegt 2:53
11 2 Sehr innig und nicht zu rasch – Adagio –
Intermezzo I. Sehr lebhaft – Erstes Tempo – Adagio –
Intermezzo II. Etwas bewegter – Langsamer (erstes Tempo) – Adagio –
Erstes Tempo 10:19
12 3 Sehr aufgeregt – Etwas langsamer – Erstes Tempo – Noch schneller 5:19
13 4 Sehr langsam – Bewegter – Erstes Tempo – Adagio 3:50
14 5 Sehr lebhaft 3:02
15 6 Sehr langsam – Etwas bewegter – Erstes Tempo 4:38
16 7 Sehr rasch – Noch schneller – Etwas langsamer 2:22
17 8 Schnell und spielend 3:16
Контейнер: FLAC (*.flac)
Тип рипа: tracks
Разрядность: 24/96
Формат: WAV (flac.ape.wv)
Количество каналов: 2.0
Imogen Cooper piano
http://www.theclassicalshop.net/Details.aspx?Catalo...ber=CHAN%2010755-

Dynamic Range Meter

foobar2000 1.2.6 / Dynamic Range Meter 1.1.1
log date: 2015-02-02 23:15:38
--------------------------------------------------------------------------------
Analyzed: Imogen Cooper / Schumann / Brahms: Fantasiestücke; Kreisleriana / Theme and Variations
--------------------------------------------------------------------------------
DR Peak RMS Duration Track
--------------------------------------------------------------------------------
DR11 -14.95 dB -30.21 dB 3:36 01-Des Abends (Evening) Sehr innig zu spielen
DR12 -4.74 dB -21.95 dB 3:25 02-Aufschwung (Soaring) Sehr rasch
DR11 -12.07 dB -29.16 dB 2:45 03-Warum? (Why?) Langsam und zart
DR13 -5.55 dB -23.23 dB 3:46 04-Grillen (Whims) Mit Humor
DR14 -3.54 dB -22.26 dB 4:30 05-In der Nacht (In the Night) Mit Leidenschaft - Etwas langsamer - Tempo I
DR12 -5.68 dB -24.72 dB 2:47 06-Fabel (Fable) Langsam - Schnell - Langasm - Schnell - Tempo I [Schnell] - Langsam
DR12 -7.21 dB -23.95 dB 2:48 07-Traumes Wirren (Restless Dreams) Äußerst lebhaft
DR12 -5.42 dB -22.18 dB 5:38 08-Ende vom Lied (The End of the Story) Mit guten Humor - Etwas lebhafter - Tempo I
DR15 -4.31 dB -24.59 dB 10:34 09-Theme and Variations (1859)
DR10 -6.53 dB -22.22 dB 2:53 10-Äußerst bewegt
DR15 -5.06 dB -26.11 dB 10:20 11-Sehr innig und nicht zu rasch - Adagio - Intermezzo I Sehr lebhaft - Erstes Tempo - Adagio - Intermezzo II Etwas bewegter - Langsamer (erstes Tempo) - Adagio - Erstes Tempo
DR12 -5.68 dB -24.27 dB 5:19 12-Sehr aufgeregt - Etwas langsamer - Erstes Tempo - Noch schneller
DR13 -13.68 dB -33.58 dB 3:51 13-Sehr langsam - Bewegter - Erstes Tempo - Adagio
DR13 -5.73 dB -25.16 dB 3:02 14-Sehr lebhaft
DR15 -8.03 dB -29.56 dB 4:39 15-Sehr langsam - Etwas bewegter - Erstes Tempo
DR11 -6.23 dB -21.32 dB 2:23 16-Sehr rasch - Noch schneller - Etwas langsamer
DR12 -6.30 dB -23.61 dB 3:16 17-Schnell und spielend
--------------------------------------------------------------------------------
Number of tracks: 17
Official DR value: DR12
Samplerate: 96000 Hz
Channels: 2
Bits per sample: 24
Bitrate: 2167 kbps
Codec: FLAC
================================================================================
[teatrix.ru].t11583.torrent 
Торрент: Зарегистрирован [ 2015-12-07 17:45 ] · C2812D21B1EE58FE40C41BCE295C5D654F5C0100

Скачать .torrent

Скачать

14 KB

Статус: проверено
Скачан: 0 раз
Размер: 1.14 GB
terms.php



Быстрый ответ

Имя:

      
Для отправки сообщений необходимо включить JavaScript
Показать сообщения:    

Текущее время: 04-Дек 02:53

Часовой пояс: UTC + 3


Вы можете начинать темы
Вы можете отвечать на сообщения
Вы не можете редактировать свои сообщения
Вы не можете удалять свои сообщения
Вы не можете голосовать в опросах
Вы не можете прикреплять файлы к сообщениям
Вы можете скачивать файлы