[TR24][SM][OF] Medtner & Scriabin - Piano Concerto No.3 & Piano Concerto - Yevgeny Sudbin, Andrew Litton & Bergen Philharmonic Orchestra - 2014 (Classical)


Статистика раздачи [Обновить пиров]
Размер:  982 MB   |    Зарегистрирован:  1 год   |    Скачан:  0 раз

Полного источника не было: 1 месяц 4 дня

Личеров:  4  [  0 KB/s  ]   Подробная статистика пиров
 
   
 
 
 

[Цитировать]

Yevgeny Sudbin piano
Bergen Philharmonic Orchestra
Andrew Litton conductor


Формат записи/Источник записи: [TR24][SM][OF]
Наличие водяных знаков: Нет
Издание: BIS-2088 SACD
Год издания/переиздания диска: 2014
Жанр: Classical
Издатель(лейбл): BIS Records
Продолжительность: 62:42
Наличие сканов в содержимом раздачи: Да
Треклист:
Alexander Scriabin (1872–1915)
Piano Concerto in F sharp minor Op. 20
1) I. Allegro 7'20
2) II. Andante 8'26
3) III. Allegro moderato 10'41
Nikolai Medtner (1880–1951)
Piano Concerto No.3 in E minor ‘Ballade’ Op. 60
4) I. Con moto largamento – Allegretto con moto 14'30
5) II. Interludium. Allegro, molto sostenuto, misterioso 1'29
6) III. Finale. Allegro molto, svegliando, eroico –
Andante con moto tranquillo – Allegro molto –
Coda: Maestoso, ma appassionato 19'16
Контейнер: FLAC (*.flac)
Тип рипа: tracks
Разрядность: 24/96
Формат: WAV (flac.ape.wv)
Количество каналов: 2.0
http://www.eclassical.com/labels/bis/bis2088.html-

Dynamic Range Meter

foobar2000 1.2.6 / Dynamic Range Meter 1.1.1
log date: 2015-01-30 22:02:22
--------------------------------------------------------------------------------
Analyzed: Yevgeny Sudbin, Bergen Philharmonic Orchestra, Andrew Litton / Scriabin & Medtner: Piano Concertos
--------------------------------------------------------------------------------
DR Peak RMS Duration Track
--------------------------------------------------------------------------------
DR14 -2.36 dB -22.46 dB 7:25 01-Piano Concerto in F sharp minor, Op.20 - I. Allegro
DR16 -6.36 dB -29.16 dB 8:31 02-Piano Concerto in F sharp minor, Op.20 - II. Andante
DR14 -0.25 dB -21.65 dB 10:59 03-Piano Concerto in F sharp minor, Op.20 - III. Allegro moderato
DR15 -2.65 dB -23.87 dB 14:32 04-Piano Concerto No.3 in E minor, Ballade, Op.60 - I. Con moto largamento - Allegretto con moto
DR15 -2.01 dB -20.85 dB 1:29 05-Piano Concerto No.3 in E minor, Ballade, Op.60 - II. Interludium. Allegro, molto sostenuto, misterioso
DR17 -0.25 dB -22.65 dB 19:45 06-Piano Concerto No.3 in E minor, Ballade, Op.60 - III. Finale. Allegro molto, svegliando, eroico - Andante con moto tranquillo - Allegro molto - Coda: Maestoso, ma appassionato
--------------------------------------------------------------------------------
Number of tracks: 6
Official DR value: DR15
Samplerate: 96000 Hz
Channels: 2
Bits per sample: 24
Bitrate: 2210 kbps
Codec: FLAC
================================================================================
[teatrix.ru].t11585.torrent 
Торрент: Зарегистрирован [ 2015-12-07 17:45 ] · 288CD43DF0C759B005789AE969313243FEF25BAF

Скачать .torrent

Скачать

21 KB

Статус: проверено
Скачан: 0 раз
Размер: 982 MB
terms.php



Быстрый ответ

Имя:

      
Для отправки сообщений необходимо включить JavaScript
Показать сообщения:    

Текущее время: 10-Дек 02:16

Часовой пояс: UTC + 3


Вы можете начинать темы
Вы можете отвечать на сообщения
Вы не можете редактировать свои сообщения
Вы не можете удалять свои сообщения
Вы не можете голосовать в опросах
Вы не можете прикреплять файлы к сообщениям
Вы можете скачивать файлы