[TR24][OF] Olivier Messiaen: Turangalila - Symphonie - Angela Hewitt, Valerie Hartmann-Claverie, Finnish Radio Symphony Orchestra, Hannu Lintu - 2014 (Symphony, Orchestral)


Статистика раздачи [Обновить пиров]
Размер:  1.2 GB   |    Зарегистрирован:  11 месяцев   |    Скачан:  1 раз

Полного источника не было: 1 месяц 30 дней

Личеров:  5  [  0 KB/s  ]   Подробная статистика пиров
 
   
 
 
 

[Цитировать]

Olivier Messiaen: Turangalila - Symphonie - Angela Hewitt, Valerie Hartmann-Claverie, Finnish Radio Symphony Orchestra, Hannu Lintu
Формат записи/Источник записи: [SACD-R][OF]
Наличие водяных знаков: Нет
Год издания/переиздания диска: 2014
Жанр: Symphony, Orchestral
Издатель(лейбл): Ondine
Треклист:
Turangalîla-symphonie:
01. I. Introduction. Modéré, un peu vif
02. II. Chant d’amour I Modéré, lourd
03. III. Turangalîla I. Presque lent, rêveur
04. IV. Chant d’amour II. Bien modéré
05. V. Joie du Sang des Étoiles. Vif passionné avec joie
06. VI. Jardin du Sommeil d’amour. Très modéré, très tendre
07. VII. Turangalîla II. Un peu vif, bien modéré
08. VIII. Développement d’amour. Bien modéré
09. IX. Turangalîla III. Bien modéré
10. X. Final. Modéré, presque vif, avec une grande joie
Исполнители:
Angela Hewitt, piano,
Valerie Hartmann-Claverie, ondes Martenot,
Finnish Radio Symphony Orchestra,
Hannu Lintu, conductor.
Контейнер: FLAC (*.flac)
Тип рипа: tracks
Разрядность: 24/88,2
Количество каналов: 2
Источник: artmuss

Dynamic Range

foobar2000 1.2 / Dynamic Range Meter 1.1.1
log date: 2015-01-13 06:39:55
--------------------------------------------------------------------------------
Analyzed: Olivier Messiaen: TurangalГ®la / Olivier Messiaen: TurangalГ®la
--------------------------------------------------------------------------------
DR Peak RMS Duration Track
--------------------------------------------------------------------------------
DR16 -6.52 dB -27.62 dB 6:34 01-I Introduction
DR13 -6.51 dB -24.91 dB 8:03 02-II Chant D'Amour 1
DR13 -8.73 dB -27.79 dB 5:23 03-III TurangalГ®la 1
DR14 -8.25 dB -28.91 dB 10:21 04-IV Chant D'Amour 2
DR14 -6.41 dB -23.41 dB 6:15 05-V Joie du sang des Г©toiles
DR13 -18.22 dB -37.20 dB 9:53 06-VI Jardin du sommeil d'amour
DR13 -6.51 dB -25.44 dB 3:53 07-VII TurangalГ®la 2
DR13 -6.52 dB -24.83 dB 11:37 08-VIII DГ©veloppement de l'amour
DR16 -7.12 dB -32.24 dB 5:37 09-IX TurangalГ®la 3
DR12 -6.31 dB -21.55 dB 7:32 10-X Final
--------------------------------------------------------------------------------
Number of tracks: 10
Official DR value: DR14
Samplerate: 2822400 Hz / PCM Samplerate: 88200 Hz
Channels: 2
Bits per sample: 24
Bitrate: 5645 kbps
Codec: DSD64
================================================================================
[teatrix.ru].t11586.torrent 
Торрент: Зарегистрирован [ 2015-12-07 17:45 ] · 93D1AD1145A832C8AE0C98B85C77DE66ECD50AAA

Скачать .torrent

Скачать

14 KB

Статус: проверено
Скачан: 1 раз
Размер: 1.2 GB
terms.php



Быстрый ответ

Имя:

      
Для отправки сообщений необходимо включить JavaScript
Показать сообщения:    

Текущее время: 04-Дек 23:24

Часовой пояс: UTC + 3


Вы можете начинать темы
Вы можете отвечать на сообщения
Вы не можете редактировать свои сообщения
Вы не можете удалять свои сообщения
Вы не можете голосовать в опросах
Вы не можете прикреплять файлы к сообщениям
Вы можете скачивать файлы