[TR24][SM][OF] W. A. Mozart - Piano Concertos NO 22 K482 & NO 24 K491 - Angela Hewitt, Hannu Lintu & National Arts Centre Orchestra - 2014 (Classical)


Статистика раздачи [Обновить пиров]
Размер:  1.04 GB   |    Зарегистрирован:  11 месяцев   |    Скачан:  0 раз

Полного источника не было: Никогда

Личеров:  4  [  0 KB/s  ]   Подробная статистика пиров
 
   
 
 
 

[Цитировать]

Wolfgang Amadeus Mozart (1756-1791)
Формат записи/Источник записи: [TR24][SM][OF]
Наличие водяных знаков: Нет
Издание: CDA68049
Год издания/переиздания диска: 2014
Жанр: Classical
Издатель(лейбл): Hyperion Records
Продолжительность: 01:03:17
Наличие сканов в содержимом раздачи: artwork + booklet
Треклист:
Piano Concerto No 22 in E flat major K482
1 Allegro [13'43]
2 Andante [8'01]
3 Allegro [10'57]
Piano Concerto No 24 in C minor K491
4 Allegro [13'56]
5 Larghetto [7'18]
6 Allegretto [9'22]
Контейнер: FLAC (*.flac)
Тип рипа: tracks
Разрядность: 24/96
Формат: WAV (flac.ape.wv)
Количество каналов: 5.1

http://www.hyperion-records.co.uk/dc.asp?dc=D_CDA68049-

Состав

Angela Hewitt, piano
National Arts Centre Orchestra
Hannu Lintu, conductor

Dynamic Range Meter

oobar2000 1.2.6 / Dynamic Range Meter 1.1.1
log date: 2015-01-26 23:55:38
--------------------------------------------------------------------------------
Analyzed: Angela Hewitt, Hannu Lintu, National Arts Centre Orchestra / Mozart: Piano Concertos Nos 22 & 24
--------------------------------------------------------------------------------
DR Peak RMS Duration Track
--------------------------------------------------------------------------------
DR15 -0.20 dB -22.32 dB 13:43 01-Piano Concerto No 22 in E flat major, K482 - I. Allegro
DR16 -3.95 dB -26.97 dB 8:02 02-Piano Concerto No 22 in E flat major, K482 - II. Andante
DR16 -0.49 dB -23.93 dB 10:57 03-Piano Concerto No 22 in E flat major, K482 - III. Allegro
DR14 -1.92 dB -21.75 dB 13:56 04-Piano Concerto No 24 in C minor, K491 - I. Allegro
DR13 -9.89 dB -27.46 dB 7:18 05-Piano Concerto No 24 in C minor, K491 - II. Larghetto
DR16 -0.20 dB -22.92 dB 9:21 06-Piano Concerto No 24 in C minor, K491 - III. Allegretto
--------------------------------------------------------------------------------
Number of tracks: 6
Official DR value: DR15
Samplerate: 96000 Hz
Channels: 2
Bits per sample: 24
Bitrate: 2276 kbps
Codec: FLAC
================================================================================
[teatrix.ru].t11588.torrent 
Торрент: Зарегистрирован [ 2015-12-07 17:45 ] · 0BA2F4661B5F53E5DD605E05E3F00CBE3678503B

Скачать .torrent

Скачать

12 KB

Статус: проверено
Скачан: 0 раз
Размер: 1.04 GB
terms.php



Быстрый ответ

Имя:

      
Для отправки сообщений необходимо включить JavaScript
Показать сообщения:    

Текущее время: 05-Дек 19:38

Часовой пояс: UTC + 3


Вы можете начинать темы
Вы можете отвечать на сообщения
Вы не можете редактировать свои сообщения
Вы не можете удалять свои сообщения
Вы не можете голосовать в опросах
Вы не можете прикреплять файлы к сообщениям
Вы можете скачивать файлы