[TR24][SM][OF] Rameau - Pieces de clavecin - Mahan Esfahani - 2014 (Classical)


Статистика раздачи [Обновить пиров]
Размер:  2.68 GB   |    Зарегистрирован:  1 год   |    Скачан:  1 раз
Сидов:  1  [  0 KB/s  ]   Личеров:  4  [  0 KB/s  ]   Подробная статистика пиров
 
   
 
 
 

[Цитировать]

Jean-Philippe Rameau (1683-1764)

Формат записи/Источник записи: [TR24][SM][OF]
Наличие водяных знаков: Нет
Издание: CDA68071/2
Год издания/переиздания диска: 2014
Жанр: Classical
Издатель(лейбл): hyperion-records
Продолжительность: 02:08:22
Наличие сканов в содержимом раздачи: artwork + booklet
Контейнер: FLAC (*.flac)
Тип рипа: tracks
Разрядность: 24/96
Формат: WAV (flac.ape.wv)
Количество каналов: 2.0
Источник (релизер): http://www.hyperion-records.co.uk/dc.asp?dc=D_CDA68071/2
Исполнитель: Mahan Esfahani, harpsichord

Треклист

DISK 1
Suite No 1 in A minor
1 Prélude [2'04]
2 Allemande I [4'08]
3 Allemande II [1'55]
4 Courante [1'52]
5 Gigue [2'23]
6 Sarabandes I & II [2'58]
7 Vénitienne [1'29]
8 Gavotte [1'28]
9 Menuet [1'06]
Suite in E minor
10 Allemande [3'47]
11 Courante [1'36]
12 Gigues en rondeau I & II [3'36]
13 Le rappel des oiseaux [2'57]
14 Rigaudons I, II & double [2'07]
15 Musette en rondeau [2'14]
16 Tambourin [1'17]
17 La villageoise (rondeau) [2'31]
Suite in D major
18 Les tendres plaintes (rondeau) [2'58]
19 Les niais de Sologne [5'15]
20 Les soupirs [3'57]
21 La joyeuse (rondeau) [1'16]
22 La follette (rondeau) [1'27]
23 L'entretien des Muses [5'49]
24 Les tourbillons (rondeau) [2'11]
25 Les cyclopes (rondeau) [3'05]
26 Le lardon (menuet) [0'48]
27 La boiteuse [1'01]
28 Menuet en rondeau in C major [0'35]
DISK 2
Suite No 2 in A minor
29 Allemande [6'37]
30 Courante [3'51]
31 Sarabande [2'40]
32 Les trois mains [4'38]
33 Fanfarinette [2'37]
34 Le triomphante [1'28]
35 Gavotte [7'26]
Suite in G minor
36 Les tricotets (rondeau) [1'40]
37 L'indifferente [1'41]
38 Menuets I & II [3'02]
39 La poule [4'42]
40 Les triolets [3'59]
41 Les sauvages [2'18]
42 L'enharmonique [5'41]
43 L'egiptienne [3'41]
44 La Dauphine [2'49]
45 Les petits marteaux [1'42]

Dynamic Range Meter

foobar2000 1.2.6 / Dynamic Range Meter 1.1.1
log date: 2015-01-23 23:08:03
--------------------------------------------------------------------------------
Analyzed: Mahan Esfahani / Rameau: Pièces de clavecin
--------------------------------------------------------------------------------
DR Peak RMS Duration Track
--------------------------------------------------------------------------------
DR12 -7.16 dB -25.32 dB 2:04 01-Suite No 1 in A minor - 1: Prélude
DR12 -10.72 dB -25.72 dB 4:08 02-Suite No 1 in A minor - 2: Allemande I
DR12 -14.85 dB -28.49 dB 1:55 03-Suite No 1 in A minor - 3: Allemande II
DR13 -8.73 dB -23.92 dB 1:52 04-Suite No 1 in A minor - 4: Courante
DR13 -8.43 dB -24.73 dB 2:23 05-Suite No 1 in A minor - 5: Gigue
DR12 -12.04 dB -26.77 dB 2:58 06-Suite No 1 in A minor - 6: Sarabandes I & II
DR13 -13.63 dB -28.97 dB 1:29 07-Suite No 1 in A minor - 7: Vénitienne
DR12 -9.29 dB -25.65 dB 1:28 08-Suite No 1 in A minor - 8: Gavotte
DR12 -15.32 dB -30.67 dB 1:06 09-Suite No 1 in A minor - 9: Menuet
DR12 -9.22 dB -23.58 dB 3:47 10-Suite in E minor - 1: Allemande
DR12 -10.35 dB -24.20 dB 1:36 11-Suite in E minor - 2: Courante
DR13 -5.77 dB -24.23 dB 3:36 12-Suite in E minor - 3: Gigues en rondeau I & II
DR13 -12.69 dB -28.32 dB 2:57 13-Suite in E minor - 4: Le rappel des oiseaux
DR13 -7.62 dB -23.59 dB 2:07 14-Suite in E minor - 5: Rigaudons I, II & double
DR13 -11.99 dB -26.89 dB 2:14 15-Suite in E minor - 6: Musette en rondeau
DR14 -5.50 dB -20.89 dB 1:17 16-Suite in E minor - 7: Tambourin
DR12 -9.07 dB -24.89 dB 2:31 17-Suite in E minor - 8: La villageoise (rondeau)
DR12 -12.83 dB -27.76 dB 2:58 18-Suite in D major - 01: Les tendres plaintes (rondeau)
DR12 -8.59 dB -23.80 dB 5:15 19-Suite in D major - 02: Les niais de Sologne
DR12 -11.44 dB -26.81 dB 3:57 20-Suite in D major - 03: Les soupirs
DR12 -5.78 dB -22.81 dB 1:16 21-Suite in D major - 04: La joyeuse (rondeau)
DR11 -10.74 dB -24.51 dB 1:27 22-Suite in D major - 05: La follette (rondeau)
DR12 -10.92 dB -26.40 dB 5:49 23-Suite in D major - 06: L'entretien des Muses
DR13 -7.32 dB -23.30 dB 2:11 24-Suite in D major - 07: Les tourbillons (rondeau)
DR13 -7.18 dB -22.34 dB 3:05 25-Suite in D major - 08: Les cyclopes (rondeau)
DR12 -12.24 dB -26.61 dB 0:48 26-Suite in D major - 09: Le lardon (menuet)
DR12 -12.81 dB -28.02 dB 1:01 27-Suite in D major - 10: La boiteuse
DR10 -12.50 dB -25.66 dB 0:35 28-Menuet en rondeau in C major
--------------------------------------------------------------------------------
Number of tracks: 28
Official DR value: DR12
Samplerate: 96000 Hz
Channels: 2
Bits per sample: 24
Bitrate: 2653 kbps
Codec: FLAC
================================================================================
foobar2000 1.2.6 / Dynamic Range Meter 1.1.1
log date: 2015-01-23 23:19:27
--------------------------------------------------------------------------------
Analyzed: Mahan Esfahani / Rameau: Pièces de clavecin
--------------------------------------------------------------------------------
DR Peak RMS Duration Track
--------------------------------------------------------------------------------
DR12 -7.82 dB -21.51 dB 6:37 29-Suite No 2 in A minor - 1: Allemande
DR13 -3.86 dB -18.18 dB 3:51 30-Suite No 2 in A minor - 2: Courante
DR12 -7.70 dB -23.29 dB 2:40 31-Suite No 2 in A minor - 3: Sarabande
DR12 -5.71 dB -20.08 dB 4:38 32-Suite No 2 in A minor - 4: Les trois mains
DR12 -6.65 dB -22.85 dB 2:37 33-Suite No 2 in A minor - 5: Fanfarinette
DR12 -5.33 dB -19.69 dB 1:28 34-Suite No 2 in A minor - 6: Le triomphante
DR14 -2.58 dB -20.58 dB 7:26 35-Suite No 2 in A minor - 7: Gavotte
DR11 -6.59 dB -21.24 dB 1:40 36-Suite in G minor - 1: Les tricotets (rondeau)
DR12 -9.75 dB -24.75 dB 1:41 37-Suite in G minor - 2: L'indifferente
DR12 -8.02 dB -22.78 dB 3:02 38-Suite in G minor - 3: Menuets I & II
DR13 -2.44 dB -20.13 dB 4:41 39-Suite in G minor - 4: La poule
DR12 -7.93 dB -21.82 dB 4:00 40-Suite in G minor - 5: Les triolets
DR12 -5.26 dB -20.92 dB 2:18 41-Suite in G minor - 6: Les sauvages
DR13 -8.03 dB -24.72 dB 5:41 42-Suite in G minor - 7: L'enharmonique
DR12 -5.44 dB -20.01 dB 3:41 43-Suite in G minor - 8: L'egiptienne
DR13 -4.44 dB -21.06 dB 2:49 44-La Dauphine
DR12 -9.50 dB -25.46 dB 1:42 45-Les petits marteaux
--------------------------------------------------------------------------------
Number of tracks: 17
Official DR value: DR12
Samplerate: 96000 Hz
Channels: 2
Bits per sample: 24
Bitrate: 2804 kbps
Codec: FLAC
================================================================================
[teatrix.ru].t11591.torrent 
Торрент: Зарегистрирован [ 2015-12-07 17:45 ] · 5BD26D62E9F824BEB70771B6F09A5F22424A397C

Скачать .torrent

Скачать

18 KB

Статус: проверено
Скачан: 1 раз
Размер: 2.68 GB
terms.php



Быстрый ответ

Имя:

      
Для отправки сообщений необходимо включить JavaScript
Показать сообщения:    

Текущее время: 08-Дек 09:04

Часовой пояс: UTC + 3


Вы можете начинать темы
Вы можете отвечать на сообщения
Вы не можете редактировать свои сообщения
Вы не можете удалять свои сообщения
Вы не можете голосовать в опросах
Вы не можете прикреплять файлы к сообщениям
Вы можете скачивать файлы