[TR24][SM][OF] Nebra, Porpora, Jommelli, Traetta, Marcolini, Hasse, Corradini, Conforto, CPE Bach - El Maestro Farinelli / Pablo Heras-Casado & Concerto Koln - 2014 (Classical)


Статистика раздачи [Обновить пиров]
Размер:  1.26 GB   |    Зарегистрирован:  11 месяцев   |    Скачан:  1 раз

Полного источника не было: 9 месяцев 1 день

Личеров:  4  [  0 KB/s  ]   Подробная статистика пиров
 
   
 
 
 

[Цитировать]

Жанр: Miscellanious
Носитель: Official Digital Download
Год издания/переиздания диска: 2014
Издатель(лейбл): Deutsche Grammophon
Номер по каталогу: 4792050
Продолжительность: 01:14:25
Наличие сканов в содержимом раздачи: cover + booklet
Контейнер: FLAC (*.flac)
Разрядность: 24/96
Формат: tracks
Количество каналов: 2.0
Источник: prestoclassical.co.uk
Pелизер: WEB (thanks to the original customer)
-Concerto Köln
Pablo Heras-Casado
Bejun Mehta countertenor *
Joël Grare percussion *
http://www.qobuz.com/fr-fr/album/el-maestro-farinel...ln/0002894792053

Треклист

Nicola Conforto (1718–1793)
Overture to La festa cinese World premiere recording
01 (Allegro) – Andante – (Allegro) 04:00
Nicola Porpora (1686-1768)
Overture to Carlo il calvo World premiere recording
02 Allegro – Minuet – Contradanza 04:27
Johann Adolf Hasse (1699–1783)
Sinfonia op.5 no.6
03 Allegro 04:08
04 Andante sempre 01:54
05 Allegro 03:24
José de Nebra (1702–1768)
Tempestad grande World premiere recording
06 Fandango from the zarzuela Vendado es amor, no es ciego 02:50 **
Carl Philipp Emanuel Bach (1714–1788)
Sinfonia In E Minor "Fandango" Wq178
07 Allegro assai 04:03
08 Andante moderato 03:34
09 Allegro 03:25
Francesco Corradini (1690–1769)
10. Baile de las máscaras (excerpts) 05:02 World premiere recording
Juan Marcolini (born 1730's , flourished 1760 – 70)
Overture to La dicha en la desgracia y vida campestre World premiere recording
11 Allegro assai e spiritoso 03:35
Nicola Porpora (1686-1768)
12 Alto Giove from Polifemo 08:31 * World premiere recording
José de Nebra (1702–1768)
13 Seguidilla from Amar y ser amado y la divina Philotea (incidental music) 1:29 * World premiere recording
14 Seguidilla from Para obsequio a la deydad, nunca es culto la crueldad, y Iphigenia en Tracia 0:54 World premiere recording
15 Seguidilla from Vendado es amor, no es ciego 1:13 World premiere recording
16 Canción from Viento es la dicha de amor 1:08 * World premiere recording
17 Seguidilla (1) from Donde hay violencia no hay culpa (attributed) 2:39 World premiere recording
18 Seguidilla (2) from Donde hay violencia no hay culpa 0:52 * World premiere recording
Niccolò Jommelli (1714–1774)
Periodical Overture World premiere recording
19 Allegro di molto – Chaconne 05:49
Tommaso Traetta (1727–1779)
Overture to Armida World premiere recording
20 Allegro – Andante – Allegro 05:29

Dynamic Range Meter

foobar2000 1.2.6 / Dynamic Range Meter 1.1.1
log date: 2015-01-21 10:22:46
--------------------------------------------------------------------------------
Analyzed: Bejun Mehta, Concerto Köln / El Maestro: Farinelli (1-2)
Concerto Köln / El Maestro: Farinelli (3-20)
--------------------------------------------------------------------------------
DR Peak RMS Duration Track
--------------------------------------------------------------------------------
DR15 -0.06 dB -17.84 dB 2:50 06-Vendado amor es, no ciego ( Zarzuela): Tempestad grande
DR14 -6.19 dB -25.26 dB 8:31 12-Polifemo: Alto Giove, è tua grazia
DR15 -0.06 dB -19.41 dB 4:00 01-La festa cinese: Overture
DR14 -0.06 dB -17.83 dB 4:27 02-Carlo il calvo: Overture
DR14 -3.53 dB -20.21 dB 4:08 03-Sinfonia Op.5, No.6: Allegro
DR12 -12.21 dB -28.45 dB 1:54 04-Sinfonia Op.5, No.6: Andante sempre
DR13 -4.60 dB -20.37 dB 3:24 05-Sinfonia Op.5, No.6: Allegro
DR13 -0.54 dB -19.10 dB 4:03 07-Sinfonia In E Minor 'Fandango' Wq 178: Allegro assai
DR12 -9.60 dB -26.81 dB 3:34 08-Sinfonia In E Minor 'Fandango' Wq 178: Andante moderato
DR15 -5.42 dB -23.13 dB 3:25 09-Sinfonia In E Minor 'Fandango' Wq 178: Allegro
DR14 0.00 dB -18.35 dB 5:02 10-Baile de las máscaras
DR13 -0.02 dB -19.57 dB 3:35 11-La dicha en la desgracia y vida campestre: Overture
DR16 -2.10 dB -21.61 dB 1:29 13-Seguidilla From 'Amar y ser amado y la divina Philotea'
DR12 -7.14 dB -22.51 dB 0:54 14-Seguidilla From 'Para obsequio a la deydad, nunca es culto la crueldad, y Iphigenia en Tracia'
DR13 -6.65 dB -22.51 dB 1:13 15-Seguidilla From 'Vendado es amor, no es ciego'
DR15 -1.28 dB -18.75 dB 1:08 16-Canción From 'Viento es la dicha de amor'
DR13 -8.47 dB -25.97 dB 2:39 17-Seguidilla From 'Donde hay violencia no hay culpa' (1)
DR19 -0.11 dB -22.01 dB 0:58 18-Seguidilla From 'Donde hay violencia no hay culpa' (2)
DR14 -1.93 dB -21.07 dB 5:49 19-Periodical Overture
DR14 -2.67 dB -21.54 dB 5:29 20-Armida: Overture
--------------------------------------------------------------------------------
Number of tracks: 20
Official DR value: DR14
Samplerate: 96000 Hz
Channels: 2
Bits per sample: 24
Bitrate: 2627 kbps
Codec: FLAC
================================================================================
[teatrix.ru].t11593.torrent 
Торрент: Зарегистрирован [ 2015-12-07 17:45 ] · 143401A9EC5CB052C611D5FC18A5008FF0B69D0A

Скачать .torrent

Скачать

15 KB

Статус: проверено
Скачан: 1 раз
Размер: 1.26 GB
terms.php



Быстрый ответ

Имя:

      
Для отправки сообщений необходимо включить JavaScript
Показать сообщения:    

Текущее время: 05-Дек 03:29

Часовой пояс: UTC + 3


Вы можете начинать темы
Вы можете отвечать на сообщения
Вы не можете редактировать свои сообщения
Вы не можете удалять свои сообщения
Вы не можете голосовать в опросах
Вы не можете прикреплять файлы к сообщениям
Вы можете скачивать файлы