[TR24][OF] Paul Hindemith - Sonatas for... (Александр Мельников / Alexander Melnikov, Isabelle Faust, Александр Рудин / Alexander Rudin, Jeroen Berwaerts, Gérard Costes, Teunis van der Zwart) - 2015 (Classical)


Статистика раздачи [Обновить пиров]
Размер:  1.17 GB   |    Зарегистрирован:  1 год   |    Скачан:  0 раз

Полного источника не было: Никогда

Личеров:  4  [  0 KB/s  ]   Подробная статистика пиров
 
   
 
 
 

[Цитировать]

Paul Hindemith
Sonatas for...
-Год издания: 2015 | Жанр: Classical
Издатель: Harmonia Mundi | Продолжительность: 01:11:08
Наличие сканов: Sleeve, Digital Booklet- -Alexander Melnikov, piano | Isabelle Faust, violin
Alexander Rudin, cello | Jeroen Berwaerts, trumpet
Teunis van der Zwart, althorn | Gérard Costes, trombone
Recorded September and December 2013 at Teldex Studio Berlin in Berlin, Germany
-Контейнер: FLAC (*.flac) | Тип рипа: tracks
Разрядность: 24bit / 96kHz | Количество каналов: 2.0
-ТреклистPaul Hindemith (1895-1963)
Sonata for Althorn and Piano (1943)
01. I. Ruhig bewegt (2:05)
02. II. Lebhaft (3:30)
03. III. Sehr langsam (2:04)
04. IV. Das Posthorn (Zwiegespräch) - Lebhaft (4:00)
Sonata for Violoncello and Piano (1948)
05. I. Pastorale (6:34)
06. II. Moderately fast - Slow - Tempo I (6:16)
07. III. Passacaglia (8:43)
Sonata for Trombone and Piano (1941)
08. I. Allegro moderato maestoso (2:55)
09. II. Allegretto grazioso (3:12)
10. III. Lied des Raufbolds (Swashbuckler's Song). Allegro pesante (2:11)
11. IV. Allegro moderato maestoso (2:53)
Sonata for Violin and Piano (1935)
12. I. Ruhig bewegt (3:58)
13. II. Langsam - Sehr lebhaft - Langsam - Wieder lebhaft (6:34)
Sonata for Trumpet and Piano (1939)
14. I. Mit Kraft (5:23)
15. II. Mäßig bewegt - Lebhaft - Wie zuerst (2:19)
16. III. Trauermusik, Sehr langsam - Ruhig bewegt - Wie am Anfang - Alle Menschen müssen sterben. Sehr ruhig (8:32)

О релизе


Hindemith composed more than 30 sonatas for the most diverse instruments - all of which he was capable of playing himself! This fascinating selection of works written between 1935 (when he became persona non grata in Nazi Germany) and 1948 (the brilliant Cello Sonata for Piatigorsky) is played by some of today's finest soloists, with the guiding spirit of Alexander Melnikov at the piano. How often does one hear a sonata for Althom? Especially one published along with a poem by the composer?

ОтчётыДинамический диапазон

foobar2000 1.2.2 / Dynamic Range Meter 1.1.1log date: 2015-01-19 00:10:54
--------------------------------------------------------------------------------Analyzed: Alexander Melnikov, Alexander Rudin / Hindemith: Sonatas for… (1-3) Alexander Melnikov, Gérard Costes / Hindemith: Sonatas for… (4-7) Alexander Melnikov, Isabelle Faust / Hindemith: Sonatas for… (8-9) Alexander Melnikov, Jeroen Berwaerts / Hindemith: Sonatas for… (10-12) Alexander Melnikov, Teunis van der Zwart / Hindemith: Sonatas for… (13-16)--------------------------------------------------------------------------------
DR Peak RMS Duration Track--------------------------------------------------------------------------------DR13 -0.33 dB -18.08 dB 6:34 ?-Sonata for Violoncello and Piano: I. PastoraleDR14 -0.33 dB -19.14 dB 6:16 ?-Sonata for Violoncello and Piano: II. Moderately fast - Slow - Tempo IDR11 -0.33 dB -15.35 dB 8:43 ?-Sonata for Violoncello and Piano: III. PassacagliaDR12 -0.33 dB -16.03 dB 2:55 ?-Sonata for Trombone and Piano: I. Allegro moderato maestosoDR13 -6.99 dB -24.65 dB 3:12 ?-Sonata for Trombone and Piano: II. Allegretto graziosoDR12 -0.33 dB -15.23 dB 2:11 ?-Sonata for Trombone and Piano: III. Lied des Raufbolds (Swashbuckler's Song). Allegro pesanteDR11 -0.33 dB -15.53 dB 2:53 ?-Sonata for Trombone and Piano: IV. Allegro moderato maestosoDR14 -4.90 dB -25.33 dB 3:58 ?-Sonata for Violin and Piano: I. Ruhig bewegtDR15 -2.10 dB -22.21 dB 6:34 ?-Sonata for Violin and Piano: II. Langsam - Sehr lebhaft - Langsam - Wieder lebhaftDR11 -0.33 dB -15.81 dB 5:23 ?-Sonata for Trumpet and Piano: I. Mit KraftDR12 -4.24 dB -24.25 dB 2:19 ?-Sonata for Trumpet and Piano: II. Mäßig bewegt - Lebhaft - Wie zuerstDR13 -0.33 dB -18.96 dB 8:32 ?-Sonata for Trumpet and Piano: III. Trauermusik, Sehr langsam - Ruhig bewegt - Wie am Anfang - Alle Menschen müssen sterben. Sehr ruhigDR11 -8.74 dB -24.82 dB 2:05 ?-Sonata for Althorn and Piano: I. Ruhig bewegtDR13 -0.33 dB -18.67 dB 3:30 ?-Sonata for Althorn and Piano: II. LebhaftDR12 -1.17 dB -20.61 dB 2:04 ?-Sonata for Althorn and Piano: III. Sehr langsamDR13 -0.33 dB -19.05 dB 4:00 ?-Sonata for Althorn and Piano: IV. Das Posthorn (Zwiegespräch) - Lebhaft--------------------------------------------------------------------------------
Number of tracks: 16Official DR value: DR12
Samplerate: 96000 HzChannels: 2Bits per sample: 24Bitrate: 2243 kbpsCodec: FLAC================================================================================

Скриншот спектра частот

Доп. информация

При скачивании, если необходимо, переименуйте папку, в которой будет находиться альбомБольшая просьба к скачавшим поддерживать раздачу! Помогайте другим, ведь вам тоже может понадобиться помощь!Не забываем говорить "Спасибо"!Комментарии приветствуются!
Isabelle Faust Hi-Res
[teatrix.ru].t11594.torrent 
Торрент: Зарегистрирован [ 2015-12-07 17:45 ] · 051A0FBECDB883628454FF037344F989A9356F38

Скачать .torrent

Скачать

14 KB

Статус: проверено
Скачан: 0 раз
Размер: 1.17 GB
terms.php



Быстрый ответ

Имя:

      
Для отправки сообщений необходимо включить JavaScript
Показать сообщения:    

Текущее время: 09-Дек 06:54

Часовой пояс: UTC + 3


Вы можете начинать темы
Вы можете отвечать на сообщения
Вы не можете редактировать свои сообщения
Вы не можете удалять свои сообщения
Вы не можете голосовать в опросах
Вы не можете прикреплять файлы к сообщениям
Вы можете скачивать файлы