[TR24][SM][OF] Allan Pettersson - Symphony No. 9 - Christian Lindberg & Norrkoping Symphony Orchestra - 2013 (Classical)


Статистика раздачи [Обновить пиров]
Размер:  1.18 GB   |    Зарегистрирован:  1 год 1 месяц   |    Скачан:  1 раз

Полного источника не было: 1 месяц 16 дней

Личеров:  4  [  0 KB/s  ]   Подробная статистика пиров
 
   
 
 
 

[Цитировать]

Allan Pettersson (1911–1980)
Формат записи/Источник записи: [TR24][SM][OF]
Наличие водяных знаков: Нет
Издание: BIS-2038
Год издания/переиздания диска: 2013
Жанр: Classical
Издатель(лейбл): BIS Records
Продолжительность: 70:11
Наличие сканов в содержимом раздачи: Да
Треклист:
Symphony No.9 (1970)
01. Beginning 7'38
02. 3 bars after Fig.27 8'58
03. 3 bars before Fig.58 7'56
04. 2 bars before Fig.88 6'45
05. 3 bars after Fig.111 8'13
06. Fig.139 4'52
07. 5 bars after Fig.153 12'43
08. 4 bars after Fig.189 5'33
09. Fig.203 6'58
Контейнер: FLAC (*.flac)
Тип рипа: tracks
Разрядность: 24/96
Формат: WAV (flac.ape.wv)
Количество каналов: 2.0
Источник (релизер): http://www.eclassical.com/labels/bis/allan-petterss...ymphony-no9.html
Оркестр: Norrköping Symphony Orchestra
Дирижер: Christian Lindberg-

Dynamic Range Meter

foobar2000 1.2.6 / Dynamic Range Meter 1.1.1
log date: 2015-01-20 15:11:21
--------------------------------------------------------------------------------
Analyzed: Norrköping Symphony Orchestra, Christian Lindberg / Allan Pettersson: Symphony No. 9 (1970) (Gehrmans)
--------------------------------------------------------------------------------
DR Peak RMS Duration Track
--------------------------------------------------------------------------------
DR15 -5.81 dB -27.36 dB 7:40 01-Symphony No. 9 (1970) - Beginning
DR14 -5.87 dB -26.84 dB 8:59 02-Symphony No. 9 (1970) - 3 bars after Fig.27
DR14 -3.54 dB -22.39 dB 7:56 03-Symphony No. 9 (1970) - 3 bars before Fig.58
DR13 -6.77 dB -26.71 dB 6:46 04-Symphony No. 9 (1970) - 2 bars before Fig.88
DR14 -5.48 dB -24.74 dB 8:14 05-Symphony No. 9 (1970) - 3 bars after Fig.111
DR13 -9.58 dB -29.51 dB 4:52 06-Symphony No. 9 (1970) - Fig.139
DR14 -2.86 dB -23.10 dB 12:44 07-Symphony No. 9 (1970) - 5 bars after Fig.153
DR15 -0.01 dB -20.60 dB 5:33 08-Symphony No. 9 (1970) - 4 bars after Fig.189
DR14 -5.07 dB -25.89 dB 7:28 09-Symphony No. 9 (1970) - Fig.203
--------------------------------------------------------------------------------
Number of tracks: 9
Official DR value: DR14
Samplerate: 96000 Hz
Channels: 2
Bits per sample: 24
Bitrate: 2340 kbps
Codec: FLAC
================================================================================
[teatrix.ru].t11595.torrent 
Торрент: Зарегистрирован [ 2015-12-07 17:45 ] · 8C724295E8E908B97B5C616F6A7C8CA395AF14B4

Скачать .torrent

Скачать

13 KB

Статус: проверено
Скачан: 1 раз
Размер: 1.18 GB
terms.php



Быстрый ответ

Имя:

      
Для отправки сообщений необходимо включить JavaScript
Показать сообщения:    

Текущее время: 20-Янв 16:55

Часовой пояс: UTC + 3


Вы можете начинать темы
Вы можете отвечать на сообщения
Вы не можете редактировать свои сообщения
Вы не можете удалять свои сообщения
Вы не можете голосовать в опросах
Вы не можете прикреплять файлы к сообщениям
Вы можете скачивать файлы