[TR24][OF] Jean Sibelius & William Walton - Violin Concertos (Akiko Suwanai, City Of Birmingham Symphony Orchestra; Sakari Oramo) - 2003/2012 (Classical)


Статистика раздачи [Обновить пиров]
Размер:  1.21 GB   |    Зарегистрирован:  1 год   |    Скачан:  0 раз

Полного источника не было: Никогда

Личеров:  4  [  0 KB/s  ]   Подробная статистика пиров
 
   
 
 
 

[Цитировать]

Jean Sibelius & William Walton
Violin Concertos
Akiko Suwanai • City Of Birmingham Symphony Orchestra • Sakari Oramo- Год издания/переиздания диска: 2003/2012
Жанр: Classical
Издатель (лейбл): Decca Classics
Продолжительность: 01:01:42
Наличие сканов: Sleeve- -
Jean Sibelius (1865-1957)
Violin Concerto in D minor, Op.47
01. I. Allegro moderato (15:34)
02. II. Adagio di molto (9:07)
03. III. Allegro, ma non tanto (7:16)
William Walton (1902-1983)
Violin Concerto in B minor
04. I. Andante tranquilo (10:43)
05. II. Presto capriccioso alla napolitana (6:25)
06. III. Vivace (12:38)-Akiko Suwanai, violin
City of Birmingham Symphony Orchestra
Sakari Oramo, conductor
Recorded: Symphony Hall, Birmingham, 6 March 2002 (Walton), 26 June 2002 (Sibelius)-Контейнер: FLAC (*.flac)
Тип рипа: tracks
Разрядность: 24bit / 96kHz
Количество каналов: 2.0-О релизе

“Suwanai’s Sibelius was as evocative as it could have been. With a rare ability to combine precision and long-bowed resonance, Suwanai is an obvious match for this serious work...hers was a performance that reached deep into the heart of the music.” (The Scotsman, October 2011)
The full orchestra assembled for the evening’s centrepiece, Bruch’s Violin Concerto No 1 in G minor. Akiko Suwanai, a tall, imposing violinist of striking stage presence, raised her bow for a sombre, intense descent of notes at the start: this was big-boned, noble playing, with its rhythmic life taut and rigorous. Long-sighted phrasing gave an equal sense of wide tracts of space and time in the slow movement. The strength of every idea was beautifully placed and poised before a finale thrilling in its perfection of pitch and pacing. “ (The Times, May 2011)
“Seeing such a talented young violinist play this, the last of Mozart’s five authentic violin concertos, with such an instrument was pure joy. As Akiko took her lead from the Maestro, her great skill and lyricism went in perfect partnership with the Philharmonia, who allowed her to articulate the themes of Mozart’s work with a maturity seldom seem in one so young.” (Gazette, April 2011)

ОтчётыДинамический диапазон

foobar2000 1.2.2 / Dynamic Range Meter 1.1.1log date: 2015-01-18 18:58:06
--------------------------------------------------------------------------------Analyzed: Akiko Suwanai, City Of Birmingham Symphony Orchestra; Sakari Oramo / Sibelius & Walton: Violin Concertos--------------------------------------------------------------------------------
DR Peak RMS Duration Track--------------------------------------------------------------------------------DR18 -0.23 dB -25.16 dB 15:34 ?-Violin Concerto in D minor, Op.47: I. Allegro moderatoDR15 -2.86 dB -26.35 dB 9:07 ?-Violin Concerto in D minor, Op.47: II. Adagio di moltoDR16 -0.58 dB -23.09 dB 7:16 ?-Violin Concerto in D minor, Op.47: III. Allegro, ma non tantoDR18 -1.95 dB -27.94 dB 10:43 ?-Violin Concerto in B minor: I. Andante tranquiloDR18 -5.38 dB -29.79 dB 6:25 ?-Violin Concerto in B minor: II. Presto capriccioso alla napolitanaDR19 -0.94 dB -27.72 dB 12:38 ?-Violin Concerto in B minor: III. Vivace--------------------------------------------------------------------------------
Number of tracks: 6Official DR value: DR17
Samplerate: 96000 HzChannels: 2Bits per sample: 24Bitrate: 2814 kbpsCodec: FLAC================================================================================

Скриншот спектра частот

Доп. информация

При скачивании, если необходимо, переименуйте папку, в которой будет находиться альбомБольшая просьба к скачавшим поддерживать раздачу! Помогайте другим, ведь вам тоже может понадобиться помощь!Не забываем говорить "Спасибо"!Комментарии приветствуются!
[teatrix.ru].t11596.torrent 
Торрент: Зарегистрирован [ 2015-12-07 17:45 ] · AD24DC51631D617017DF053197CFC6FE7A1A975A

Скачать .torrent

Скачать

13 KB

Статус: проверено
Скачан: 0 раз
Размер: 1.21 GB
terms.php



Быстрый ответ

Имя:

      
Для отправки сообщений необходимо включить JavaScript
Показать сообщения:    

Текущее время: 09-Дек 14:37

Часовой пояс: UTC + 3


Вы можете начинать темы
Вы можете отвечать на сообщения
Вы не можете редактировать свои сообщения
Вы не можете удалять свои сообщения
Вы не можете голосовать в опросах
Вы не можете прикреплять файлы к сообщениям
Вы можете скачивать файлы