[TR24][SM][OF] Alfred Schnittke/Шнитке - Symphony No. 0 & Nagasaki - Hanneli Rupert, Voice of the Nation, Owain Arwel Hughes & Cape Philharmonic Orchestra - 2007 (Classical)


Статистика раздачи [Обновить пиров]
Размер:  717 MB   |    Зарегистрирован:  11 месяцев   |    Скачан:  0 раз

Полного источника не было: Никогда

Личеров:  4  [  0 KB/s  ]   Подробная статистика пиров
 
   
 
 
 

[Цитировать]

Alfred Schnittke (1934-1998)
Формат записи/Источник записи: [TR24][SM][OF]
Наличие водяных знаков: Нет
Издание: BIS-CD-1647
Год издания/переиздания диска: 2007
Жанр: Classical
Издатель(лейбл): BIS Records
Продолжительность: 01:17:35
Наличие сканов в содержимом раздачи: Да
Треклист:
Symphony No.0 (1956-57) 40'34
1. I. Allegro ma non troppo 12'58
2. II. Allegro vivace 7'08
3. III. Andante 10'26
4. IV. Allegro 9'35
Nagasaki, Oratorio for mezzo soprano, mixed choir and orchestra (1958) 36'09
Texts: Anatoly Sofronov, Georgy Fere, Eisaku Yoneda and Shimazaki Toson
5. I. Nagasaki, City of Grief 6'27
6. II. The Morning 4'44
7. III. On That Fateful Day 7'14
8. IV. On the Ashes 5'31
9. V. The Sun of Peace 11'54
Контейнер: FLAC (*.flac)
Тип рипа: tracks
Разрядность: 24/44,1
Формат: WAV (flac.ape.wv)
Количество каналов: 2.0
Источник (релизер): http://www.eclassical.com/conductors/hughes-owain-a...o0-nagasaki.html

Состав

Hanneli Rupert, mezzo-soprano
Cape Town Opera Voice of the Nation
Cape Philharmonic Orchestra
Owain Arwel Hughes, conductor

Dynamic Range Meter

foobar2000 1.2.2 / Dynamic Range Meter 1.1.1
log date: 2015-01-17 18:56:18
--------------------------------------------------------------------------------
Analyzed: Rupert, Hanneli, Cape Town Opera Voice of the Nation / Schnittke - Symphony No.0 & Nagasaki (1-5)
Schnittke, Alfred / Schnittke - Symphony No.0 & Nagasaki (6-9)
--------------------------------------------------------------------------------
DR Peak RMS Duration Track
--------------------------------------------------------------------------------
DR14 -0.10 dB -19.97 dB 6:34 5/9-(Nagasaki, Oratorio for mezzo soprano, mixed choir and orchestra) - I. Nagasaki, City of Grief
DR14 -1.64 dB -21.56 dB 4:46 6/9-(Nagasaki, Oratorio for mezzo soprano, mixed choir and orchestra) - II. The Morning
DR12 -0.10 dB -16.28 dB 7:18 7/9-(Nagasaki, Oratorio for mezzo soprano, mixed choir and orchestra) - III. On That Fateful Day
DR15 -5.64 dB -28.14 dB 5:37 8/9-(Nagasaki, Oratorio for mezzo soprano, mixed choir and orchestra) - IV. On the Ashes
DR12 -0.10 dB -17.40 dB 12:28 9/9-(Nagasaki, Oratorio for mezzo soprano, mixed choir and orchestra) - V. The Sun of Peace
DR13 -3.10 dB -21.70 dB 13:09 1/9-(Symphony No.0) - I. Allegro ma non troppo
DR13 -3.10 dB -21.79 dB 7:17 2/9-(Symphony No.0) - II. Allegro vivace
DR12 -3.10 dB -21.51 dB 10:34 3/9-(Symphony No.0) - III. Andante
DR13 -3.10 dB -21.51 dB 9:52 4/9-(Symphony No.0) - IV. Allegro
--------------------------------------------------------------------------------
Number of tracks: 9
Official DR value: DR13
Samplerate: 44100 Hz
Channels: 2
Bits per sample: 24
Bitrate: 1294 kbps
Codec: FLAC
================================================================================
[teatrix.ru].t11599.torrent 
Торрент: Зарегистрирован [ 2015-12-07 17:45 ] · C74A5253E03B588B6760FC083AFFA8E18924AACB

Скачать .torrent

Скачать

16 KB

Статус: проверено
Скачан: 0 раз
Размер: 717 MB
terms.php



Быстрый ответ

Имя:

      
Для отправки сообщений необходимо включить JavaScript
Показать сообщения:    

Текущее время: 05-Дек 17:34

Часовой пояс: UTC + 3


Вы можете начинать темы
Вы можете отвечать на сообщения
Вы не можете редактировать свои сообщения
Вы не можете удалять свои сообщения
Вы не можете голосовать в опросах
Вы не можете прикреплять файлы к сообщениям
Вы можете скачивать файлы