[TR24][SM][OF] Diego Ortiz - Recercadas del Tratado de Glosas (Roma 1553) - Jordi Savall, Ton Koopman, Rolf Lislevand & Andrew Lawrence-King - 1990 (Classical)


Статистика раздачи [Обновить пиров]
Размер:  815 MB   |    Зарегистрирован:  1 год   |    Скачан:  0 раз

Полного источника не было: Никогда

Личеров:  2  [  0 KB/s  ]   Подробная статистика пиров
 
   
 
 
 

[Цитировать]

Diego Ortiz (ca. 1510 – ca. 1570)
Формат записи/Источник записи: [TR24][SM][OF]
Наличие водяных знаков: Нет
Издание: AVSA9899
Год издания/переиздания диска: 1990/2013
Жанр: Classical
Издатель(лейбл): Alia Vox
Продолжительность: 00:49:25
Наличие сканов в содержимом раздачи: Да
Треклист:
RECERCADAS SOBRE EL CANTO LLANO « LA SPAGNA »
1. Recercada segunda 1’54
2. Recercada terçera 1’47
3. Recercada primera 1’37
4. Recercada quarta 1’39
5. Recercada quinta 1’49
6. Recercada sesta 0’53
RECERCADAS SOBRE EL MADRIGAL « O FELICI OCCHI MIEI »
de J. Arcadelt
7. Recercada quarta 1’48
8. Recercada primera 1’50
9. Recercada segunda 1’56
10. Recercada terçera 1’48
RECERCADAS PARA VIOLA DE GAMBA SOLA
11. Recercada terçera 1’31
12. Recercada segunda 1’50
13. Recercada primera 1’18
14. Recercada quarta 1’25
RECERCADAS SOBRE LA CANCIÓN « DOULCE MEMOIRE »
de P. Sandrin
15. Recercada quarta 2’43
16. Recercada primera 2’30
17. Recercada segunda 2’57
18. Recercada terçera 2’26
RECERCADAS SOBRE TENORES
19. Recercada quarta sobre la “folia” 1’48
20. Recercada primera sobre el “passamezzo antiguo” 1’25
21. Recercada ottava sobre “la folia” 1’44
22. Recercada “Quinta” boz 1’22
23. Recercada tercera sobre el “passamezzo” moderno 2’01
24. Recercada sesta sobre la “Romanesca” 1’23
25. Recercada settima sobre la “Romanesca” 1’15
26. Recercada quinta sobre el “passamezzo” antiguo 2’44
27. Recercada segunda sobre el “passamezzo” moderno 1’25
Контейнер: FLAC (*.flac)
Тип рипа: tracks
Разрядность: 24/88,2
Формат: WAV (flac.ape.wv)
Количество каналов: 2.0
Источник (релизер): http://www.qobuz.com/fr-fr/album/diego-ortiz-recerc...91075?qref=dac_2

Состав

Jordi Savall, basse de viole Pellegrino Zanetti, Venezia 1550.
Ton Koopman, clavicémbalo & órgano di legno.
Andrew Lawrence-King, harpe.
Lorenz Duftschmid, violone.
Rolf Lislevand, Vihuela & guitarre.
Paolo Pandolfo, viola la gamba.

Dynamic Range Meter

foobar2000 1.2.2 / Dynamic Range Meter 1.1.1
log date: 2015-01-17 18:12:31
--------------------------------------------------------------------------------
Analyzed: Jordi Savall, Conductor, Main Artist - Ton Koopman, Main Artist - Rolf Lislevand, Main Artist - Diego Ortiz, Composer - Public Domain / Jordi Savall - Ton Koopman - Rolf Lislevand - Andrew Lawrence-King : Diego Ortiz : Recercadas del Tratado de Glosas (1553) (1-7)
Jordi Savall, Main Artist - Diego Ortiz, Composer - Public Domain / Jordi Savall - Ton Koopman - Rolf Lislevand - Andrew Lawrence-King : Diego Ortiz : Recercadas del Tratado de Glosas (1553) (8-11)
Jordi Savall, Main Artist - Ton Koopman, Main Artist - Rolf Lislevand, Main Artist - Diego Ortiz, Composer - Public Domain / Jordi Savall - Ton Koopman - Rolf Lislevand - Andrew Lawrence-King : Diego Ortiz : Recercadas del Tratado de Glosas (1553) (12-27)
--------------------------------------------------------------------------------
DR Peak RMS Duration Track
--------------------------------------------------------------------------------
DR9 -1.07 dB -15.90 dB 1:48 07-Recercadas Sobre el Madrigal "O felici occhi miei": Recercada Quarta
DR11 -3.27 dB -17.60 dB 1:50 08-Recercadas Sobre el Madrigal "O felici occhi miei": Recercada Primera
DR11 -2.89 dB -19.12 dB 1:56 09-Recercadas Sobre el Madrigal "O felici occhi miei": Recercada Segunda
DR12 -0.51 dB -16.94 dB 1:56 10-Recercadas Sobre el Madrigal "O felici occhi miei": Recercada Tercera
DR11 -1.34 dB -16.16 dB 2:01 23-Recercadas Sobre Tenores: Recardada Terçera Sobre el "Passamezzo Moderno"
DR11 -0.89 dB -17.06 dB 1:25 24-Recercadas Sobre Tenores: Recardada Sesta Sobre la "Romanesca"
DR11 -0.84 dB -17.34 dB 1:15 25-Recercadas Sobre Tenores: Recardada Settima Sobre la "Romanesca"
DR12 -4.23 dB -19.81 dB 1:31 11-Recercadas para Viola de Gamba Solo: Recercada Tercera
DR11 -3.78 dB -19.15 dB 1:50 12-Recercadas para Viola de Gamba Solo: Recercada Segunda
DR11 -3.61 dB -19.50 dB 1:20 13-Recercadas para Viola de Gamba Solo: Recercada Primera
DR12 -4.92 dB -20.46 dB 1:32 14-Recercadas para Viola de Gamba Solo: Recercada Quarta
DR10 -3.90 dB -17.20 dB 1:55 01-Recercadas Sobre el Canto llano "La Spagna": Recercada Segunda
DR10 -4.07 dB -17.24 dB 1:49 02-Recercadas Sobre el Canto llano "La Spagna": Recercada Tercera
DR11 -4.40 dB -20.00 dB 1:37 03-Recercadas Sobre el Canto llano "La Spagna": Recercada Primera
DR11 -3.25 dB -16.90 dB 1:43 04-Recercadas Sobre el Canto llano "La Spagna": Recercada Quarta
DR10 -3.57 dB -16.71 dB 1:49 05-Recercadas Sobre el Canto llano "La Spagna": Recercada Quinta
DR10 -3.07 dB -16.31 dB 1:02 06-Recercadas Sobre el Canto llano "La Spagna": Recercada Sesta
DR11 -3.76 dB -19.34 dB 2:44 15-Recercadas Sobre la Cancion "Doulce Memoire": Recercada Quarta
DR12 -0.53 dB -18.13 dB 2:32 16-Recercadas Sobre la Cancion "Doulce Memoire": Recercada Primera
DR14 -3.58 dB -22.67 dB 2:59 17-Recercadas Sobre la Cancion "Doulce Memoire": Recercada Segunda
DR12 -0.53 dB -17.69 dB 2:34 18-Recercadas Sobre la Cancion "Doulce Memoire": Recercada Tercera
DR13 -0.44 dB -16.42 dB 1:48 19-Recercadas Sobre Tenores: Recardada Quarta Sobre "La Folia"
DR11 -2.59 dB -17.90 dB 1:25 20-Recercadas Sobre Tenores: Recardada Primera Sobre el "Passamezzo Antiguo"
DR13 -0.92 dB -16.37 dB 1:45 21-Recercadas Sobre Tenores: Recardada Octava Sobre "La Folia"
DR12 -3.09 dB -17.28 dB 1:22 22-Recercadas Sobre Tenores: Recardada Quinta Sobre "Boz"
DR11 -6.48 dB -21.62 dB 2:44 26-Recercadas Sobre Tenores: Recardada Quinta Sobre el "Passamezzo antiguo"
DR12 -0.10 dB -16.14 dB 1:25 27-Recercadas Sobre Tenores: Recardada Segunda Sobre el "Passamezzo moderno"
--------------------------------------------------------------------------------
Number of tracks: 27
Official DR value: DR11
Samplerate: 88200 Hz
Channels: 2
Bits per sample: 24
Bitrate: 2283 kbps
Codec: FLAC
================================================================================
[teatrix.ru].t11600.torrent 
Торрент: Зарегистрирован [ 2015-12-07 17:45 ] · 051F57B6DD3A314361F49A46624E5F8649DAFB71

Скачать .torrent

Скачать

19 KB

Статус: проверено
Скачан: 0 раз
Размер: 815 MB
terms.php



Быстрый ответ

Имя:

      
Для отправки сообщений необходимо включить JavaScript
Показать сообщения:    

Текущее время: 08-Дек 17:19

Часовой пояс: UTC + 3


Вы можете начинать темы
Вы можете отвечать на сообщения
Вы не можете редактировать свои сообщения
Вы не можете удалять свои сообщения
Вы не можете голосовать в опросах
Вы не можете прикреплять файлы к сообщениям
Вы можете скачивать файлы