[TR24][OF] Frédéric (Frederic) Chopin - Ballades & Scherzos (Arthur Rubinstein) - 2004/2013 (Classical / Piano)

DL-List and Torrent activity [Update пиров]
Size:  2.39 GB   |    Registered:  10 months 15 days   |    Completed:  0 times

Seeder not seen: Never

Leechers:  2  [  0 KB/s  ]   Show peers in full details


Frederic Chopin
Ballades & Scherzos
Arthur Rubinstein- Год издания/переиздания диска: 2004/2013
Жанр: Classical / Piano
Издатель (лейбл): Sony Music | Masterworks
Продолжительность: 01:11:25
Наличие сканов: Sleeve, Digital Booklet
- -
Frédéric Chopin (1810-1849)
01. Ballade No. 1 in G Minor, Op. 23 (9:22)
02. Ballade No. 2 in F, Op. 38 (6:44)
03. Ballade No. 3 in A-Flat, Op. 47 (7:21)
04. Ballade No. 4 in F Minor, Op. 52 (10:49)
05. Scherzo No. 1 in B Minor, Op. 20 (9:07)
06. Scherzo No. 2 in B-Flat Minor, Op. 31 (9:47)
07. Scherzo No. 3 in C-Sharp Minor, Op. 39 (7:17)
08. Scherzo No. 4 in E, Op. 54 (10:58)
-Arthur Rubinstein - piano
Recorded April 28-29, 1959 (Ballades) and March 25-26, 1959 (Scherzos) in Manhattan Center, New York City
-Контейнер: FLAC (*.flac)
Тип рипа: tracks
Разрядность: 24bit / 176.4kHz
Количество каналов: 2.0
-О релизе

Remastered from first-generation session tapes at Soundmirror Inc., Boston MA. All sessions were recorded to 3-track 1/2-inch tape on Ampex 300 tape machines running at 15 inches per second.
Typical RCA Living Stereo mic setups included Neumann M-49 and U-47 condenser and RCA 77DX ribbon mics. Microphones were connected to custom-made RCA mixing consoles, which in turn fed the tape recorders.
Arthur Rubinstein is widely considered one of the greatest pianists of the twentieth century and one of Chopin’s finest interpreters. This renowned album finds Rubinstein in peak form. His performance of Chopin’s Ballades and Scherzos is inspiring and lyrical. Captured by RCA Living Stereo's team in the highest fidelity and clarity, this is the definitive performance of Chopin’s masterpieces.

ОтчётыДинамический диапазон

foobar2000 1.2.2 / Dynamic Range Meter 1.1.1log date: 2015-01-17 13:03:38
--------------------------------------------------------------------------------Analyzed: Arthur Rubinstein / Chopin: Ballades & Scherzos--------------------------------------------------------------------------------
DR Peak RMS Duration Track--------------------------------------------------------------------------------DR12 -0.80 dB -18.02 dB 9:22 ?-Ballade No. 1 in G Minor, Op. 23DR11 -1.95 dB -18.94 dB 6:44 ?-Ballade No. 2 in F, Op. 38DR12 -1.17 dB -19.70 dB 7:21 ?-Ballade No. 3 in A-Flat, Op. 47DR13 -1.00 dB -19.79 dB 10:49 ?-Ballade No. 4 in F Minor, Op. 52DR14 0.00 dB -19.76 dB 9:07 ?-Scherzo No. 1 in B Minor, Op. 20DR12 -1.38 dB -18.31 dB 9:47 ?-Scherzo No. 2 in B-Flat Minor, Op. 31DR13 -1.91 dB -19.21 dB 7:17 ?-Scherzo No. 3 in C-Sharp Minor, Op. 39DR13 -3.52 dB -24.48 dB 10:58 ?-Scherzo No. 4 in E, Op. 54--------------------------------------------------------------------------------
Number of tracks: 8Official DR value: DR13
Samplerate: 176400 HzChannels: 2Bits per sample: 24Bitrate: 4687 kbpsCodec: FLAC================================================================================

Скриншот спектра частот

Доп. информация

При скачивании, если необходимо, переименуйте папку, в которой будет находиться альбомБольшая просьба к скачавшим поддерживать раздачу! Помогайте другим, ведь вам тоже может понадобиться помощь!Не забываем говорить "Спасибо"!Комментарии приветствуются!
Torrent: Registered [ 2015-12-07 17:45 ] · 0F94F362E437212656332D6E46FA2AD2EDFD0ECF

Download .torrent


13 KB

Status: checked
Completed: 0 times
Size: 2.39 GB

Quick Reply


Heads necessary to send messages to enable JavaScript
Display posts:    

Current time is: 22-Oct 20:56

All times are UTC + 3

You can post new topics in this forum
You can reply to topics in this forum
You cannot edit your posts in this forum
You cannot delete your posts in this forum
You cannot vote in polls in this forum
You cannot attach files in this forum
You can download files in this forum