[TR24][OF] J. S. Bach - Violinkonzerten I, II; "Ciaccona" aus Partita II; "Air" aus Orchestersuite III; "Gavotte" aus Partita III (Joshua Bell, Academy of St Martin in the Fields) - 2014 (Classical)


Статистика раздачи [Обновить пиров]
Размер:  284 MB   |    Зарегистрирован:  1 год   |    Скачан:  0 раз

Полного источника не было: Никогда

Личеров:  2  [  0 KB/s  ]   Подробная статистика пиров
 
   
 
 
 

[Цитировать]

BACHJOSHUA BELLACADEMY OF ST MARTIN IN THE FIELDS- Год издания: 2014
Жанр: Classical
Издатель (лейбл): Sony Classical
Продолжительность: 00:50:02
Наличие сканов: Sleeve, Digital Booklet- -
Johann Sebastian Bach (1685 - 1750)
I. Violin Concerto No. 1 in A Minor, BWV 1041
(01) I. Allegro (3:22)
(02) II. Andante (6:33)
(03) III. Allegro assai (3:28)
II. Violin Concerto No. 2 in E Major BWV 1042
(04) I. Allegro (6:55)
(05) II. Adagio (5:54)
(06) III. Allegro assai (2:34)
III. Partita No. 2 in D Minor, BWV 1004
(07) Chaconne (Orchestral arrangement by Mendelssohn) (13:29)
IV. Orchestral Suite No. 3 in D Major, BWV 1068
(08) II. Air (4:56)
V. Partita for Violin Solo No. 3 in E Major, BWV 1006
(09) Gavotte (Rondeau) (2:50)-Исполнители:
Joshua Bell - violin and leader
Academy of St Martin in the Fields-Контейнер: FLAC (*.flac)
Тип рипа: tracks
Разрядность: 24bit / 44.1kHz
Количество каналов: 2.0-О релизе

Violinist Joshua Bell is one of the most acclaimed classical musicians of today — renowned for his expressive, elegant, intelligent playing and his deep commitment to bringing the classical tradition to wider audiences.
Now Bell has for the first time recorded the masterpieces of J.S. Bach with the Academy of St Martin in the Fields. In his third season now as their music director, Bell performs Bach's sublime Violin Concertos No. 1 and No. 2, along with a never-done-before 'violin and orchestra' arrangement of the famous "Chaconne" from the Partita No. 2 (adapted from Mendelssohn's piano accompaniment), the Gavotte en Rondeau from Partita No. 3 for solo violin (using Schumann's accompaniment), and the universally beloved "Air on the G string."
"Bach is the composer who got me hooked on music in the first place," says Bell, whose "house was filled with Bach when I was growing up." He also began his music career with Bach. Says Bell, "I made my first appearance as soloist with an orchestra when I was seven years old. The concerto was by Bach, and Bach's music has been central in my life, even though I have until now resisted recording his music. My approach to Bach has been continuously evolving. I grew up deeply influenced by a tradition of Bach playing that has since gone out of fashion with the arrival of the 'original instrument' movement. What fascinates me is how the beauty of Bach can shine through both when performed in a 'romantic' style (if done tastefully of course!) and also when done with a more 'historically informed' approach."

ОтчётыДинамический диапазон

foobar2000 1.2.2 / Dynamic Range Meter 1.1.1log date: 2015-01-16 21:28:42
--------------------------------------------------------------------------------Analyzed: Joshua Bell, Academy of St Martin in the Fields / Joshua Bell: Bach--------------------------------------------------------------------------------
DR Peak RMS Duration Track--------------------------------------------------------------------------------DR11 -1.00 dB -15.41 dB 3:22 ?-Violin Concerto No. 1 in A Minor, BWV 1041:I. AllegroDR14 -1.00 dB -19.50 dB 6:33 ?-Violin Concerto No. 1 in A Minor, BWV 1041:II. AndanteDR11 -1.00 dB -14.57 dB 3:28 ?-Violin Concerto No. 1 in A Minor, BWV 1041:III. Allegro assaiDR11 -1.00 dB -15.49 dB 6:55 ?-Violin Concerto No. 2 in E Major, BWV 1042:I. AllegroDR14 -1.00 dB -21.27 dB 5:54 ?-Violin Concerto No. 2 in E Major, BWV 1042:II. AdagioDR12 -1.00 dB -15.40 dB 2:34 ?-Violin Concerto No. 2 in E Major, BWV 1042:III. Allegro assaiDR13 -1.00 dB -18.38 dB 13:29 ?-Partita No. 2 in D minor, BWV 1004:V. Chaconne from Partita No. 2 in D Minor, BWV 1004DR13 -1.70 dB -19.74 dB 4:56 ?-Orchestral Suite No. 3 in D Major, BWV 1068:II. Air from Orchestral Suite No. 3 in D Major, BWV 1068DR14 -1.00 dB -17.59 dB 2:50 ?-Partita for Violin Solo No. 3 in E Major, BWV 1006:III. Gavotte en Rondeau from Partita for Violin Solo No. 3 in E Major, BWV 1006--------------------------------------------------------------------------------
Number of tracks: 9Official DR value: DR13
Samplerate: 44100 HzChannels: 2Bits per sample: 24Bitrate: 782 kbpsCodec: FLAC================================================================================

Скриншот спектра частот

Доп. информация

При скачивании, если необходимо, переименуйте папку, в которой будет находиться альбомБольшая просьба к скачавшим поддерживать раздачу! Помогайте другим, ведь вам тоже может понадобиться помощь!Не забываем говорить "Спасибо"!Комментарии приветствуются!
[teatrix.ru].t11602.torrent 
Торрент: Зарегистрирован [ 2015-12-07 17:45 ] · 6A9DDB7F56A993103938EAEA6E19349A295E35F6

Скачать .torrent

Скачать

12 KB

Статус: проверено
Скачан: 0 раз
Размер: 284 MB
terms.php



Быстрый ответ

Имя:

      
Для отправки сообщений необходимо включить JavaScript
Показать сообщения:    

Текущее время: 09-Дек 08:54

Часовой пояс: UTC + 3


Вы можете начинать темы
Вы можете отвечать на сообщения
Вы не можете редактировать свои сообщения
Вы не можете удалять свои сообщения
Вы не можете голосовать в опросах
Вы не можете прикреплять файлы к сообщениям
Вы можете скачивать файлы