[TR24][SM][OF] Richard Reed Parry - Music for Heart and Breath - 2014 (Classical)


Статистика раздачи [Обновить пиров]
Размер:  1.16 GB   |    Зарегистрирован:  1 год   |    Скачан:  0 раз

Полного источника не было: Никогда

Личеров:  3  [  0 KB/s  ]   Подробная статистика пиров
 
   
 
 
 

[Цитировать]

Richard Reed Parry - Music for Heart and Breath
Жанр: Classical
Год издания диска: 2014
Издатель (лейбл): Deutsche Grammophon
Номер по каталогу: 4793061
Аудиокодек: FLAC (*.flac)
Тип рипа: tracks
Формат: Studio Master
Битрейт аудио: lossless 24/96
Продолжительность: 01:05:34
Источник (релизер): Qobuz
Наличие сканов в содержимом раздачи: да
Исполнители:
Richard Reed Parry
Треклист:
01. Quartet For Heart And Breath (6:45)
02. Heart And Breath Sextet (15:00)
03. For Heart, Breath And Orchestra (12:22)
04. Interruptions (Heart And Breath Nonet) : I Miniature 1 (1:23)
05. II String Peaks (2:13)
06. III Wind's Idea (3:30)
07. IV Miniature 2 (1:39)
08. V Sticks/Tension (4:16)
09. VI French Guitars (3:24)
10. VII Freeform Winds/String Drones (3:43)
11. Duet For Heart And Breath (4:28)
12. Quartet For Heart And Breath (6:48)

Отчёт foo_dr CD:

foobar2000 1.3.2 / Замер динамического диапазона (DR) 1.1.1
Дата отчёта: 2015-01-16 10:00:01
--------------------------------------------------------------------------------
Анализ: Richard Reed Parry / Richard Reed Parry : Richard Reed Parry: Music For Heart And Breath
--------------------------------------------------------------------------------
DR Пики RMS Продолжительность трека
--------------------------------------------------------------------------------
DR12 -4.09 дБ -20.90 дБ 6:45 01-Parry: Quartet For Heart And Breath
DR15 -2.89 дБ -23.97 дБ 15:00 02-Parry: Heart And Breath Sextet
DR13 -3.94 дБ -23.12 дБ 12:22 03-Parry: For Heart, Breath And Orchestra
DR9 -7.05 дБ -21.42 дБ 1:23 04-Interruptions (Heart And Breath Nonet):I Miniature 1
DR10 -8.40 дБ -22.50 дБ 2:13 05-Interruptions (Heart And Breath Nonet):II String Peaks
DR10 -7.30 дБ -23.23 дБ 3:30 06-Interruptions (Heart And Breath Nonet):III Wind's Idea
DR9 -5.68 дБ -19.44 дБ 1:39 07-Interruptions (Heart And Breath Nonet):IV Miniature 2
DR10 -4.66 дБ -20.47 дБ 4:16 08-Interruptions (Heart And Breath Nonet):V Sticks/Tension
DR10 -5.70 дБ -19.39 дБ 3:24 09-Interruptions (Heart And Breath Nonet):VI French Guitars
DR10 -4.85 дБ -16.83 дБ 3:43 10-Interruptions (Heart And Breath Nonet):VII Freeform Winds/String Drones
DR10 -8.59 дБ -23.35 дБ 4:28 11-Parry: Duet For Heart And Breath
DR12 -0.10 дБ -18.40 дБ 6:48 12-Parry: Quartet For Heart And Breath
--------------------------------------------------------------------------------
Количество треков: 12
Реальные значения DR: DR11
Частота: 96000 Гц
Каналов: 2
Разрядность: 24
Битрейт: 2257 кбит/с
Кодек: FLAC
================================================================================
[teatrix.ru].t11603.torrent 
Торрент: Зарегистрирован [ 2015-12-07 17:45 ] · 1D2EFDF021A7F12B296261613D524BC23763629C

Скачать .torrent

Скачать

13 KB

Статус: проверено
Скачан: 0 раз
Размер: 1.16 GB
terms.php



Быстрый ответ

Имя:

      
Для отправки сообщений необходимо включить JavaScript
Показать сообщения:    

Текущее время: 10-Дек 17:47

Часовой пояс: UTC + 3


Вы можете начинать темы
Вы можете отвечать на сообщения
Вы не можете редактировать свои сообщения
Вы не можете удалять свои сообщения
Вы не можете голосовать в опросах
Вы не можете прикреплять файлы к сообщениям
Вы можете скачивать файлы