[TR24][OF] Ludwig van Beethoven - Streichquartett Op. 130, Große Fuge Op. 133 (Brentano String Quartet) - 2014 (Classical)


Статистика раздачи [Обновить пиров]
Размер:  1.06 GB   |    Зарегистрирован:  1 год   |    Скачан:  1 раз

Полного источника не было: 1 месяц 3 дня

Личеров:  2  [  0 KB/s  ]   Подробная статистика пиров
 
   
 
 
 

[Цитировать]

Ludwig van Beethoven
The Late String Quartets, Op. 130 & Grosse Fuge, Op. 133
Brentano String Quartet
- Год издания: 2014
Жанр: Classical
Издатель (лейбл): Aeon
Продолжительность: 01:00:38
Наличие сканов: Sleeve, Digital Booklet
- -
Ludwig van Beethoven (1770-1827)
String Quartet No. 13 in B-Flat Major, Op. 130
01. l. Adagio ma non troppo - Allegro (14:32)
02. ll. Presto (2:01)
03. lll. Andante con moto ma non troppo (7:10)
04. lV. Alla tanza tedesca (Allegro assai) (2:58)
05. V. Cavatine (Adagio molto espressivo) (7:40)
06. Vl. Finale (Allegro) (10:46)
Grosse Fuge in B-Flat Major, Op. 133
07. Grosse Fuge in B-Flat Major (15:30)
-Brentano String Quartet:
Mark Steinberg, violin
Serena Canin, violin
Misha Amory, viola
Nina Maria Lee, cello
Recorded: 20-22/12/2012, Richardson Auditorium, Princeton University
-Контейнер: FLAC (*.flac)
Тип рипа: tracks
Разрядность: 24bit / 96kHz
Количество каналов: 2.0
-О релизе

The Brentano Quartet delivers the third volume of Beethoven’s Late Quartets for æon, this disc featuring Op. 130 and 133. The relation between form and language seems to haunt all the writing of his Quartet in B flat major. Indeed, the composer struggles with the enigmatic question of our intimate experience in relation to music and the sense of musical composition.
On the other hand, in the Grosse Fuge, Op. 133, Beethoven the visionary proclaims his unshakeable faith in a world like a will facing menace and chaos. The pertinence of the struggle marks the structure and character of every page of the quartet, one of the composer’s most inspired. Impossible not to be impressed by the sharpness of the stroke, the clarity of the discourse and the intensity of the affects. Brilliant virtuosos, the superb mastery of the Brentanos has made them famous and displays its full power in the release of this final volume.

ОтчётыДинамический диапазон

foobar2000 1.2.2 / Dynamic Range Meter 1.1.1log date: 2015-01-13 18:55:04
--------------------------------------------------------------------------------Analyzed: Brentano String Quartet / Beethoven: Late String Quartets, Op. 130 & Grosse Fuge, Op. 133--------------------------------------------------------------------------------
DR Peak RMS Duration Track--------------------------------------------------------------------------------DR17 -0.31 dB -22.68 dB 14:32 ?-String Quartet No. 13 in B-Flat Major, Op. 130: l. Adagio ma non troppo - AllegroDR15 -2.67 dB -22.62 dB 2:01 ?-String Quartet No. 13 in B-Flat Major, Op. 130: ll. PrestoDR16 -5.24 dB -25.65 dB 7:10 ?-String Quartet No. 13 in B-Flat Major, Op. 130: lll. Andante con moto ma non troppoDR14 -2.33 dB -23.99 dB 2:58 ?-String Quartet No. 13 in B-Flat Major, Op. 130: lV. Alla tanza tedesca (Allegro assai)DR13 -8.50 dB -27.32 dB 7:40 ?-String Quartet No. 13 in B-Flat Major, Op. 130: V. Cavatine (Adagio molto espressivo)DR16 -0.76 dB -22.56 dB 10:46 ?-String Quartet No. 13 in B-Flat Major, Op. 130: Vl. Finale (Allegro)DR14 0.00 dB -18.15 dB 15:30 ?-Grosse Fuge in B-Flat Major, Op. 133--------------------------------------------------------------------------------
Number of tracks: 7Official DR value: DR15
Samplerate: 96000 HzChannels: 2Bits per sample: 24Bitrate: 2634 kbpsCodec: FLAC================================================================================

Скриншот спектра частот

Доп. информация

При скачивании, если необходимо, переименуйте папку, в которой будет находиться альбомБольшая просьба к скачавшим поддерживать раздачу! Помогайте другим, ведь вам тоже может понадобиться помощь!Не забываем говорить "Спасибо"!Комментарии приветствуются!
[teatrix.ru].t11606.torrent 
Торрент: Зарегистрирован [ 2015-12-07 17:45 ] · B569291329E26A2AE1AEADFF850A4C3F5C201C1C

Скачать .torrent

Скачать

12 KB

Статус: проверено
Скачан: 1 раз
Размер: 1.06 GB
terms.php



Быстрый ответ

Имя:

      
Для отправки сообщений необходимо включить JavaScript
Показать сообщения:    

Текущее время: 08-Дек 17:19

Часовой пояс: UTC + 3


Вы можете начинать темы
Вы можете отвечать на сообщения
Вы не можете редактировать свои сообщения
Вы не можете удалять свои сообщения
Вы не можете голосовать в опросах
Вы не можете прикреплять файлы к сообщениям
Вы можете скачивать файлы