[TR24][SM][OF] The Trio Sonata in 18th-Century Italy (Albinoni, Bonporti, Vivaldi, Bononcini, Porpora, Sammartini, Locatelli, Gallo, Tartini) - London Baroque - 2012 (Classical)


Статистика раздачи [Обновить пиров]
Размер:  1.55 GB   |    Зарегистрирован:  11 месяцев   |    Скачан:  1 раз

Полного источника не было: 1 месяц 30 дней

Личеров:  3  [  0 KB/s  ]   Подробная статистика пиров
 
   
 
 
 

[Цитировать]

The Trio Sonata in 18th-Century Italy / London Baroque
Формат записи/Источник записи: [TR24][SM][OF]
Наличие водяных знаков: Нет
Издание: BIS-2015
Год издания/переиздания диска: 2012/2013
Жанр: Classical
Издатель(лейбл): BIS Records
Продолжительность: 77:14
Наличие сканов в содержимом раздачи: Да
Треклист:
Tomaso Albinoni (1671–1750)
Balletto in G major, Op.3 No.3 (1701)
1. Preludio. Largo 1'06
2. Allemanda. Allegro 1'43
3. Corrente. Allegro 1'53
4. Gavotta. Presto 0'38
Francesco Antonio Bonporti (1672–1749)
Sonata in G minor, Op.6 No.7 (1705)
5. Adagio 1'50
6. Allemanda. Allegro 1'28
7. Giga. Presto 1'36
Antonio Vivaldi (1678–1741)
8. Folia, Op.1 No.12 (1705) 9'13
Giovanni Bononcini (1670–1747)
Sonata II from XII Sonatas for the Chamber (1732)
9. Largo – Andante 2'30
10. Lento 1'36
11. Allegro 1'37
12. Menuet I. Non presto – Menuet II. Presto 2'22
Nicola Porpora (1686–1768)
Sonata, Op.2 No.III (London 1736)
13. Adagio sostenuto 2'11
14. Allegro 2'47
15. Adagio 2'19
16. Allegro 3'36
Giuseppe Sammartini (1695–1750)
Sonata V from XII Sonate (Paris 1743)
17. Andante sostenuto 1'52
18. Allegro 2'59
19. Sarabanda. Allegro ma non tanto e grazioso – Allegro – Sarabanda d.c. 4'36
Pietro Locatelli (1695–1764)
Sonata in D major, Op.8 No.8 (1744)
20. Largo andante 2'52
21. Vivace 4'08
22. Cantabile 2'55
23. [Alla Breve] – Adagio 1'49
24. Allegro molto 1'25
Domenico Gallo (c. 1730– ?)
Sonata No.1 in G major (c.1750?)
25. Moderato 1'56
26. Andantino 2'29
27. Presto 1'24
Giuseppe Tartini (1692–1770)
Suonata a tre in D minor (undated manuscript)
28. Allegro 2'55
29. Largo andante 3'55
30. Presto 1'55
Контейнер: FLAC (*.flac)
Тип рипа: tracks
Разрядность: 24/96
Формат: WAV (flac.ape.wv)
Количество каналов: 2.0
Источник (релизер): http://www.eclassical.com/orchestras/london-baroque/bis2015.html

Состав

London Baroque:
Ingrid Seifert violin
Richard Gwilt violin
Charles Medlam cello
Steven Devine harpsichord

Dynamic Range Meter

foobar2000 1.2.2 / Dynamic Range Meter 1.1.1
log date: 2015-01-11 15:29:54
--------------------------------------------------------------------------------
Analyzed: London Baroque / The Trio Sonata in 18th-Century Italy
--------------------------------------------------------------------------------
DR Peak RMS Duration Track
--------------------------------------------------------------------------------
DR11 -2.79 dB -19.48 dB 1:09 01-Balletto in G major, Op.3 No.3 - Preludio
DR13 -1.40 dB -17.89 dB 1:42 02-Balletto in G major, Op.3 No.3 - Allemanda
DR13 -2.09 dB -18.02 dB 1:53 03-Balletto in G major, Op.3 No.3 - Corrente
DR13 -2.28 dB -19.75 dB 0:44 04-Balletto in G major, Op.3 No.3 - Gavotta
DR11 -4.94 dB -20.77 dB 1:51 05-Sonata in G minor, Op.6 No.7 - Adagio
DR12 -3.52 dB -19.05 dB 1:28 06-Sonata in G minor, Op.6 No.7 - Allemanda
DR12 -2.15 dB -19.21 dB 1:40 07-Sonata in G minor, Op.6 No.7 - Giga
DR14 -0.66 dB -20.64 dB 9:25 08-Folia, Op.1 No.12
DR12 -4.60 dB -19.80 dB 2:33 09-Sonata II from XII Sonatas for the Chamber - Largo – Andante
DR12 -5.95 dB -21.29 dB 1:36 10-Sonata II from XII Sonatas for the Chamber - Lento
DR12 -4.44 dB -19.43 dB 1:38 11-Sonata II from XII Sonatas for the Chamber - Allegro
DR13 -5.48 dB -21.95 dB 2:27 12-Sonata II from XII Sonatas for the Chamber - Menuet I. Non presto – Menuet II. Presto
DR12 -5.03 dB -20.76 dB 2:13 13-Sonata, Op.2 No.III - Adagio sostenuto
DR14 -0.01 dB -18.05 dB 2:49 14-Sonata, Op.2 No.III - Allegro
DR12 -8.30 dB -22.92 dB 2:20 15-Sonata, Op.2 No.III - Adagio
DR12 -6.68 dB -21.75 dB 3:42 16-Sonata, Op.2 No.III - Allegro
DR10 -3.06 dB -19.78 dB 1:54 17-Sonata V from XII Sonate, Opera Terza - Andante sostenuto
DR13 -0.62 dB -19.15 dB 2:59 18-Sonata V from XII Sonate, Opera Terza - Allegro
DR13 -4.85 dB -20.63 dB 4:40 19-Sonata V from XII Sonate, Opera Terza - Sarabanda. Allegro ma non tanto e grazioso – Allegro – Sarabanda d.c.
DR12 -3.58 dB -19.27 dB 2:54 20-Sonata in D major, Op.8 No.8 - Largo andante
DR13 -3.47 dB -19.88 dB 4:08 21-Sonata in D major, Op.8 No.8 - Vivace
DR12 -5.31 dB -21.25 dB 2:56 22-Sonata in D major, Op.8 No.8 - Cantabile
DR13 -1.88 dB -18.54 dB 1:48 23-Sonata in D major, Op.8 No.8 - [Alla Breve] – Adagio
DR12 -3.23 dB -19.30 dB 1:33 24-Sonata in D major, Op.8 No.8 - Allegro molto
DR12 -4.80 dB -20.46 dB 2:37 25-Sonata No.1 in G major - Moderato
DR11 -5.97 dB -22.11 dB 1:49 26-Sonata No.1 in G major - Andantino
DR12 -4.33 dB -19.08 dB 1:28 27-Sonata No.1 in G major - Presto
DR13 -1.22 dB -17.95 dB 2:59 28-Suonata a tre in D minor - Allegro
DR13 -3.42 dB -19.53 dB 3:54 29-Suonata a tre in D minor - Largo andante
DR12 -1.58 dB -19.41 dB 2:25 30-Suonata a tre in D minor - Presto
--------------------------------------------------------------------------------
Number of tracks: 30
Official DR value: DR12
Samplerate: 96000 Hz
Channels: 2
Bits per sample: 24
Bitrate: 2741 kbps
Codec: FLAC
================================================================================
[teatrix.ru].t11610.torrent 
Торрент: Зарегистрирован [ 2015-12-07 17:45 ] · B5AABD57AA85ADCF693195FBB475CE9EE211230C

Скачать .torrent

Скачать

19 KB

Статус: проверено
Скачан: 1 раз
Размер: 1.55 GB
terms.php



Быстрый ответ

Имя:

      
Для отправки сообщений необходимо включить JavaScript
Показать сообщения:    

Текущее время: 05-Дек 05:29

Часовой пояс: UTC + 3


Вы можете начинать темы
Вы можете отвечать на сообщения
Вы не можете редактировать свои сообщения
Вы не можете удалять свои сообщения
Вы не можете голосовать в опросах
Вы не можете прикреплять файлы к сообщениям
Вы можете скачивать файлы