[TR24][SM][OF] Max Reger - Violin Concerto & Two Romances - Tanja Becker-Bender, Lothar Zagrosek & Konzerthausorchester Berlin - 2012 (Classical)


Статистика раздачи [Обновить пиров]
Размер:  760 MB   |    Зарегистрирован:  11 месяцев   |    Скачан:  0 раз

Полного источника не было: Никогда

Личеров:  2  [  0 KB/s  ]   Подробная статистика пиров
 
   
 
 
 

[Цитировать]

Max Reger (1873-1916)
Формат записи/Источник записи: [TR24][SM][OF]
Наличие водяных знаков: Нет
Издание: CDA67892
Год издания/переиздания диска: 2012
Жанр: Classical
Издатель(лейбл): Hyperion Records
Продолжительность: 01:14:37
Наличие сканов в содержимом раздачи: Да
Треклист:
Violin Concerto in A major Op 101
1 Allegro moderato [27'41]
2 Largo con gran espressione [15'15]
3 Allegro moderato (ma con spirito) [14'00]
Two Romances Op 50
4 No 1 in G major: Andante sostenuto [8'31]
5 No 2 in D major: Larghetto [9'10]
Контейнер: FLAC (*.flac)
Тип рипа: tracks
Разрядность: 24/44,1
Формат: WAV (flac.ape.wv)
Количество каналов: 2.0
Источник (релизер): http://www.hyperion-records.co.uk/dc.asp?dc=D_CDA67892

Исполнители

Tanja Becker-Bender violin
Konzerthausorchester Berlin
Lothar Zagrosek conductor

Dynamic Range Meter

foobar2000 1.2.2 / Dynamic Range Meter 1.1.1
log date: 2015-01-10 20:17:40
--------------------------------------------------------------------------------
Analyzed: Tanja Becker-Bender, Lothar Zagrosek, Konzerthausorchester Berlin / The Romantic Violin Concerto, Vol. 11 – Reger
--------------------------------------------------------------------------------
DR Peak RMS Duration Track
--------------------------------------------------------------------------------
DR13 -0.29 dB -18.61 dB 27:42 01-Violin Concerto in A major, Op 101 - Movement 1: Allegro moderato
DR14 -0.29 dB -18.62 dB 15:15 02-Violin Concerto in A major, Op 101 - Movement 2: Largo con gran espressione
DR12 -0.29 dB -17.10 dB 14:00 03-Violin Concerto in A major, Op 101 - Movement 3: Allegro moderato (ma con spirito)
DR13 -0.33 dB -19.59 dB 8:31 04-Two Romances, Op 50 - No 1 in G major: Andante sostenuto
DR14 -1.39 dB -20.11 dB 9:09 05-Two Romances, Op 50 - No 2 in D major: Larghetto
--------------------------------------------------------------------------------
Number of tracks: 5
Official DR value: DR13
Samplerate: 44100 Hz
Channels: 2
Bits per sample: 24
Bitrate: 1418 kbps
Codec: FLAC
================================================================================
[teatrix.ru].t11611.torrent 
Торрент: Зарегистрирован [ 2015-12-07 17:45 ] · E2473A71D7ADE20C52C7DF08F2C6A36C18AFB1A8

Скачать .torrent

Скачать

16 KB

Статус: проверено
Скачан: 0 раз
Размер: 760 MB
terms.php



Быстрый ответ

Имя:

      
Для отправки сообщений необходимо включить JavaScript
Показать сообщения:    

Текущее время: 07-Дек 00:51

Часовой пояс: UTC + 3


Вы можете начинать темы
Вы можете отвечать на сообщения
Вы не можете редактировать свои сообщения
Вы не можете удалять свои сообщения
Вы не можете голосовать в опросах
Вы не можете прикреплять файлы к сообщениям
Вы можете скачивать файлы