[TR24][OF] J.S. Bach - Johannes-Passion, BWV 245 (Academy of Ancient Music, Richard Egarr) - 2014 (Classical, Baroque, Oratorio)


Статистика раздачи [Обновить пиров]
Размер:  1.94 GB   |    Зарегистрирован:  11 месяцев 27 дней   |    Скачан:  0 раз
Сидов:  1  [  0 KB/s  ]   Личеров:  2  [  0 KB/s  ]   Подробная статистика пиров
 
   
 
 
 

[Цитировать]

J.S. BachSt. John PassionAcademy of Ancient Music, Richard Egarr- Год издания: 2014
Жанр: Classical, Baroque, Oratorio
Издатель (лейбл): AAM Records
Продолжительность: 01:44:33
Наличие сканов: Sleeve, Digital Booklet
- -Johann Sebastian Bach (1685-1750)
St. John Passion, BWV 245
James Gilchrist · Evangelista
Matthew Rose · Jesus
Ashley Riches · Pilatus
Elizabeth Watts · soprano
Sarah Connolly · alto
Andrew Kennedy · tenor
Christopher Purves · bass
Philippa Hyde · Ancilla
Richard Latham · Petrus
James Geer · Servus
Richard Egarr · director & harpsichord
Academy of Ancient Music
Choir of the AAM
-Контейнер: FLAC (*.flac)
Тип рипа: tracks
Разрядность: 24bit / 96kHz
Количество каналов: 2.0
-Треклист-Part I [00:31:39]
01. Chorale: Herr, unser Herrscher (Chorus) (7:09)
02. Recitative: Jesus ging mit seinen Jungern (Evangelist, Jesus) (1:05)
03. Chorale: Jesum von Nazareth (Chorus) (0:09)
04. Recitative: Jesus spricht zu ihnen (Evangelist, Jesus) (0:35)
05. Chorale: Jesum von Nazareth! (Chorus) (0:09)
06. Recitative: Jesus antwortete (Evangelist, Jesus) (0:22)
07. Chorale: O grosse Lieb (Chorus) (0:40)
08. Recitative: Auf dass das Wort erfullet wurde (Evangelist, Jesus) (1:01)
09. Chorale: Dein Will gescheh, Herr Gott, zugleich (Chorus) (0:43)
10. Recitative: Die Schar aber und der Oberhauptmann (Evangelist) (0:45)
11. Aria: Von den Strikken meiner Sunden (Alto) (4:30)
12. Recitative: Simon Petrus aber folgete Jesu nach (Evangelist) (0:13)
13. Aria: Ich folge dir gleichfalls (Soprano) (3:52)
14. Recitative: Derselbige Junger (Evangelist, Ancilla, Petrus, Jesus, Servus) (3:02)
15. Chorale: Wer hat dich so geschlagen (Chorus) (1:20)
16. Recitative: Und Hannas sandte ihn gebunden (Evangelist) (0:22)
17. Chorale: Bist du nicht seiner Junger einer (Chorus) (0:25)
18. Recitative: Er leugnete und sprach (Evangelist, Petrus, Servus) (1:26)
19. Aria: Ach, mein Sinn (Tenor) (2:54)
20. Chorale: Petrus, der nicht denkt zuruck (Chorus) (0:57)
Part II [01:12:54]
01. Chorale: Christus, der uns selig macht (Chorus) (0:57)
02. Recitative: Da fuhreten sie Jesum (Evangelist, Pilatus) (0:36)
03. Chorale: Ware dieser nicht ein Ubeltater (Chorus) (0:55)
04. Recitative: Pilatus sprach zu ihnen (Evangelist, Pilatus) (0:11)
05. Chorale: Wir durfen niemand toten (Chorus) (0:34)
06. Recitative: Auf dass erfullet wurde das Wort Jesu (Evangelist, Pilatus, Jesus) (1:36)
07. Chorale: Ach grosser Konig (Chorus) (1:13)
08. Recitative: Da sprach Pilatus zu ihm (Evangelist, Pilatus, Jesus) (1:13)
09. Chorale: Nicht diesen, diesen nicht (Chorus) (0:10)
10. Recitative: Barrabas aber war ein Morder (Evangelist) (0:24)
11. Arioso: Betrachte, meine Seel (Bass) (2:07)
12. Aria: Erwage, wie sein blutgefarbter Rucken (Tenor) (8:10)
13. Recitative: Und die kriegsknechte flochten eine Krone (Evangelista) (0:19)
14. Chorale: Sei gegrusset, lieber Judenkonig (Chorus) (0:32)
15. Recitative: Und gaben ihm Backenstreiche (Evangelist, Pilatus) (0:59)
16. Chorale: Kreuzige, kreuzige (Chorus) (0:51)
17. Pilatus sprach zu ihnen (Evangelista, Pilatus) (0:18)
18. Chorale: Wir haben ein Gesetz (Chorus) (1:08)
19. Recitative: Da Pilatus das Wort horete (Evangelist, Pilatus, Jesus) (1:18)
20. Chorale: Durch dein Gefangnis, Gottes Sohn (Chorus) (0:42)
21. Recitative: Die Juden aber schrieen und sprachen (Evangelist) (0:04)
22. Chorale: Lassest du diesen los (Chorus) (1:08)
23. Recitative: Da Pilatus das Wort horete (Evangelist, Pilatus) (0:40)
24. Chorale: Weg, weg mit dem (Chorus) (0:57)
25. Recitative: Spricht Pilatus zu ihnen (Evangelist, Pilatus) (0:12)
26. Chorale: Wir haben keinen Konig (Chorus) (0:08)
27. Recitative: Da uberantwortete er ihn (Evangelist) (0:47)
28. Aria: Eilt, ihr angefochtnen Seelen (Bass, Chorus) (3:42)
29. Recitative: Allda kreuzigten sie ihn (Evangelist) (1:22)
30. Chorale: Schreibe nicht: der Juden konig (Chorus) (0:31)
31. Recitative: Pilatus antwortet (Evangelist, Pilatus) (0:19)
32. Chorale: In meines Herzens Grunde (Chorus) (0:50)
33. Recitative: Die Kriegsknechte aber (Evangelist) (0:34)
34. Chorale: Lasset uns den nicht zerteilen (Chorus) (1:33)
35. Recitative: Auf dass erfullet werde die Schrift (Evangelist, Jesus) (1:39)
36. Chorale: Er nahm alles wohl in acht (Chorus) (0:51)
37. Recitative: Und von Stund annahm sie der Junger zu sich (Evangelist) (1:17)
38. Aria: Es ist vollbracht (Alto) (5:28)
39. Recitative: Und neigte das Haupt und verschied (Evangelist) (0:21)
40. Aria: Mein teurer Heiland, lass dich fragen (Bass, Chorus) (5:08)
41. Recitative: Und siehe da, der Vorhang (Evangelist) (0:10)
42. Arioso: Mein Herz, indem die ganze Welt (Tenor) (0:38)
43. Aria: Zerfliesse, mein Herze (Soprano) (7:24)
44. Recitative: Die Juden aber (Evangelist) (1:59)
45. Chorale: O hilf, Christe, Gottes Sohn (Chorus) (0:53)
46. Recitative: Darnach bat Pilatum (Evangelist) (2:04)
47. Chorale: Ruht wohl, ihr heiligen Gebeine (Chorus) (6:27)
48. Chorale: Ach Herr, lass dein lieb Engelein (Chorus) (1:38)
-

О релизе


JS Bach's St John Passion is an intensely personal experience, bringing to life the humanity of the passion story. Combining raw viscerality with moments of exquisite intimacy, it was written soon after Bach’s arrival as Kantor at Leipzig’s Thomasschule. Keen to impress a new congregation, Bach produced a setting of the age-old passion story which overshadowed almost every piece of liturgical music the world had previously known. Our recording aims to capture the authenticity and vivacity of the very first Good Friday performance at Leipzig’s Nikolaikirche.
Over the past 40 years the AAM has made over 300 recordings of baroque and classical music, winning Brit and Grammy Awards along the way. This is our first-ever recording of the St John Passion. With a superlative cast including James Gilchrist, Sarah Connolly, Andrew Kennedy, Elizabeth Watts, Christopher Purves and Matthew Rose, and directed by Richard Egarr, this is a landmark project.

ОтчётыДинамический диапазон

Part Ifoobar2000 1.2.2 / Dynamic Range Meter 1.1.1log date: 2015-01-08 18:33:11
--------------------------------------------------------------------------------Analyzed: Academy of Ancient Music Choir, Academy of Ancient Music & Richard Egarr / J.S. Bach: St. John Passion (1-8) Andrew Kennedy, Academy of Ancient Music & Richard Egarr / J.S. Bach: St. John Passion (9) Elizabeth Watts, Academy of Ancient Music & Richard Egarr / J.S. Bach: St. John Passion (10) James Gilchri, Matthew Rose, Academy of Ancient Music & Richard Egarr / J.S. Bach: St. John Passion (11) James Gilchrist, Academy of Ancient Music & Richard Egarr / J.S. Bach: St. John Passion (12-14) James Gilchrist, Matthew Rose, Academy of Ancient Music & Richard Egarr / J.S. Bach: St. John Passion (15-16) James Gilchrist, Philippa Hyde, Matthew Rose, Academy of Ancient Music & Richard Egarr / J.S. Bach: St. John Passion (17) James Gilchrist, Richard Latham, James Geer, Academy of Ancient Music & Richard Egarr / J.S. Bach: St. John Passion (18) Matthew Rose, Academy of Ancient Music & Richard Egarr / J.S. Bach: St. John Passion (19) Sarah Connolly, Academy of Ancient Music & Richard Egarr / J.S. Bach: St. John Passion (20)--------------------------------------------------------------------------------
DR Peak RMS Duration Track--------------------------------------------------------------------------------DR14 -0.42 dB -18.40 dB 7:09 ?-Part I: Chorale: Herr, unser Herrscher (Chorus)DR14 -2.55 dB -17.96 dB 0:09 ?-Part I: Chorale: Jesum von Nazareth (Chorus)DR14 -2.14 dB -18.24 dB 0:09 ?-Part I: Chorale: Jesum von Nazareth! (Chorus)DR11 -3.91 dB -19.33 dB 0:40 ?-Part I: Chorale: O grosse Lieb (Chorus)DR11 -2.29 dB -18.89 dB 0:43 ?-Part I: Chorale: Dein Will gescheh, Herr Gott, zugleich (Chorus)DR12 -3.39 dB -18.99 dB 1:20 ?-Part I: Chorale: Wer hat dich so geschlagen (Chorus)DR14 -7.28 dB -23.41 dB 0:25 ?-Part I: Chorale: Bist du nicht seiner Junger einer (Chorus)DR11 -1.49 dB -17.72 dB 0:57 ?-Part I: Chorale: Petrus, der nicht denkt zuruck (Chorus)DR14 -3.85 dB -21.98 dB 2:54 ?-Part I: Aria: Ach, mein Sinn (Tenor)DR15 -0.87 dB -21.68 dB 3:52 ?-Part I: Aria: Ich folge dir gleichfalls (Soprano)DR12 -7.98 dB -25.93 dB 0:22 ?-Part I: Recitative: Jesus antwortete (Evangelist, Jesus)DR14 -4.04 dB -22.62 dB 0:45 ?-Part I: Recitative: Die Schar aber und der Oberhauptmann (Evangelist)DR5 -4.46 dB -25.12 dB 0:13 ?-Part I: Recitative: Simon Petrus aber folgete Jesu nach (Evangelist)DR11 -9.65 dB -27.55 dB 0:22 ?-Part I: Recitative: Und Hannas sandte ihn gebunden (Evangelist)DR14 -5.17 dB -23.78 dB 0:35 ?-Part I: Recitative: Jesus spricht zu ihnen (Evangelist, Jesus)DR15 -5.63 dB -24.11 dB 1:01 ?-Part I: Recitative: Auf dass das Wort erfullet wurde (Evangelist, Jesus)DR17 -2.83 dB -23.60 dB 3:02 ?-Part I: Recitative: Derselbige Junger (Evangelist, Ancilla, Petrus, Jesus, Servus)DR14 -3.41 dB -22.66 dB 1:26 ?-Part I: Recitative: Er leugnete und sprach (Evangelist, Petrus, Servus)DR15 -6.22 dB -24.49 dB 1:05 ?-Part I: Recitative: Jesus ging mit seinen Jungern (Evangelist, Jesus)DR14 -4.59 dB -22.69 dB 4:30 ?-Part I: Aria: Von den Strikken meiner Sunden (Alto)--------------------------------------------------------------------------------
Number of tracks: 20Official DR value: DR13
Samplerate: 96000 HzChannels: 2Bits per sample: 24Bitrate: 2597 kbpsCodec: FLAC================================================================================
Part IIfoobar2000 1.2.2 / Dynamic Range Meter 1.1.1log date: 2015-01-08 18:37:00
--------------------------------------------------------------------------------Analyzed: Academy of Ancient Music Choir, Academy of Ancient Music & Richard Egarr / J.S. Bach: St. John Passion (1-19) Andrew Kennedy, Academy of Ancient Music & Richard Egarr / J.S. Bach: St. John Passion (20-21) Christopher Purves, Academy of Ancient Music & Richard Egarr / J.S. Bach: St. John Passion (22) Christopher Purves, Academy of Ancient Music Choir, Academy of Ancient Music & Richard Egarr / J.S. Bach: St. John Passion (23-24) Elizabeth Watts, Academy of Ancient Music & Richard Egarr / J.S. Bach: St. John Passion (25) James Gilch, Ashley Riches, Matthew Rose, Academy of Ancient Music & Richard Egarr / J.S. Bach: St. John Passion (26) James Gilchrist, Academy of Ancient Music & Richard Egarr / J.S. Bach: St. John Passion (27-37) James Gilchrist, Ashley Riches, Academy of Ancient Music & Richard Egarr / J.S. Bach: St. John Passion (38-46) James Gilchrist, Matthew Rose, Academy of Ancient Music & Richard Egarr / J.S. Bach: St. John Passion (47) Sarah Connolly, Academy of Ancient Music & Richard Egarr / J.S. Bach: St. John Passion (48)--------------------------------------------------------------------------------
DR Peak RMS Duration Track--------------------------------------------------------------------------------DR11 -5.03 dB -19.89 dB 0:57 ?-Part II: Chorale: Christus, der uns selig macht (Chorus)DR11 -0.27 dB -14.62 dB 0:55 ?-Part II: Chorale: Ware dieser nicht ein Ubeltater (Chorus)DR11 -3.06 dB -18.08 dB 0:34 ?-Part II: Chorale: Wir durfen niemand toten (Chorus)DR12 -4.10 dB -19.70 dB 1:13 ?-Part II: Chorale: Ach grosser Konig (Chorus)DR14 -0.88 dB -16.45 dB 0:10 ?-Part II: Chorale: Nicht diesen, diesen nicht (Chorus)DR11 -0.56 dB -15.67 dB 0:32 ?-Part II: Chorale: Sei gegrusset, lieber Judenkonig (Chorus)DR10 -0.31 dB -14.81 dB 0:51 ?-Part II: Chorale: Kreuzige, kreuzige (Chorus)DR11 -1.56 dB -18.49 dB 1:08 ?-Part II: Chorale: Wir haben ein Gesetz (Chorus)DR12 -4.28 dB -19.71 dB 0:42 ?-Part II: Chorale: Durch dein Gefangnis, Gottes Sohn (Chorus)DR12 -2.42 dB -18.92 dB 1:08 ?-Part II: Chorale: Lassest du diesen los (Chorus)DR11 -1.04 dB -16.13 dB 0:57 ?-Part II: Chorale: Weg, weg mit dem (Chorus)DR12 -3.64 dB -17.33 dB 0:08 ?-Part II: Chorale: Wir haben keinen Konig (Chorus)DR11 -2.78 dB -16.90 dB 0:31 ?-Part II: Chorale: Schreibe nicht: der Juden konig (Chorus)DR11 -1.63 dB -18.52 dB 0:50 ?-Part II: Chorale: In meines Herzens Grunde (Chorus)DR14 -2.63 dB -19.59 dB 1:33 ?-Part II: Chorale: Lasset uns den nicht zerteilen (Chorus)DR11 -2.43 dB -18.69 dB 0:51 ?-Part II: Chorale: Er nahm alles wohl in acht (Chorus)DR11 -3.16 dB -19.11 dB 0:53 ?-Part II: Chorale: O hilf, Christe, Gottes Sohn (Chorus)DR14 -3.80 dB -21.44 dB 6:27 ?-Part II: Chorale: Ruht wohl, ihr heiligen Gebeine (Chorus)DR12 -0.27 dB -17.64 dB 1:38 ?-Part II: Chorale: Ach Herr, lass dein lieb Engelein (Chorus)DR15 -4.05 dB -24.14 dB 8:10 ?-Part II: Aria: Erwage, wie sein blutgefarbter Rucken (Tenor)DR13 -4.66 dB -21.37 dB 0:38 ?-Part II: Arioso: Mein Herz, indem die ganze Welt (Tenor)DR15 -7.07 dB -27.37 dB 2:07 ?-Part II: Arioso: Betrachte, meine Seel (Bass)DR13 -1.86 dB -19.77 dB 3:42 ?-Part II: Aria: Eilt, ihr angefochtnen Seelen (Bass, Chorus)DR15 -3.54 dB -22.54 dB 5:08 ?-Part II: Aria: Mein teurer Heiland, lass dich fragen (Bass, Chorus)DR15 -0.95 dB -22.48 dB 7:24 ?-Part II: Aria: Zerfliesse, mein Herze (Soprano)DR14 -4.48 dB -24.12 dB 1:18 ?-Part II: Recitative: Da Pilatus das Wort horete (Evangelist, Pilatus, Jesus)DR12 -1.55 dB -18.66 dB 0:24 ?-Part II: Recitative: Barrabas aber war ein Morder (Evangelist)DR12 -7.06 dB -25.48 dB 0:19 ?-Part II: Recitative: Und die kriegsknechte flochten eine Krone (Evangelista)DR13 -4.63 dB -19.02 dB 0:04 ?-Part II: Recitative: Die Juden aber schrieen und sprachen (Evangelist)DR12 -1.32 dB -19.81 dB 0:47 ?-Part II: Recitative: Da uberantwortete er ihn (Evangelist)DR12 -8.02 dB -25.06 dB 1:22 ?-Part II: Recitative: Allda kreuzigten sie ihn (Evangelist)DR15 -4.39 dB -24.39 dB 0:34 ?-Part II: Recitative: Die Kriegsknechte aber (Evangelist)DR14 -6.14 dB -26.60 dB 1:17 ?-Part II: Recitative: Und von Stund annahm sie der Junger zu sich (Evangelist)DR8 -16.98 dB -30.25 dB 0:21 ?-Part II: Recitative: Und neigte das Haupt und verschied (Evangelist)DR15 -4.98 dB -22.34 dB 0:10 ?-Part II: Recitative: Und siehe da, der Vorhang (Evangelist)DR16 -4.66 dB -24.15 dB 1:59 ?-Part II: Recitative: Die Juden aber (Evangelist)DR14 -8.52 dB -26.54 dB 2:04 ?-Part II: Recitative: Darnach bat Pilatum (Evangelist)DR14 -6.36 dB -24.11 dB 0:36 ?-Part II: Recitative: Da fuhreten sie Jesum (Evangelist, Pilatus)DR14 -4.92 dB -21.29 dB 0:11 ?-Part II: Recitative: Pilatus sprach zu ihnen (Evangelist, Pilatus)DR14 -2.59 dB -22.73 dB 1:36 ?-Part II: Recitative: Auf dass erfullet wurde das Wort Jesu (Evangelist, Pilatus, Jesus)DR14 -2.06 dB -23.66 dB 1:13 ?-Part II: Recitative: Da sprach Pilatus zu ihm (Evangelist, Pilatus, Jesus)DR14 -4.80 dB -22.77 dB 0:59 ?-Part II: Recitative: Und gaben ihm Backenstreiche (Evangelist, Pilatus)DR15 -5.85 dB -24.21 dB 0:18 ?-Part II: Pilatus sprach zu ihnen (Evangelista, Pilatus)DR13 -5.62 dB -22.22 dB 0:40 ?-Part II: Recitative: Da Pilatus das Wort horete (Evangelist, Pilatus)DR16 -0.46 dB -18.35 dB 0:12 ?-Part II: Recitative: Spricht Pilatus zu ihnen (Evangelist, Pilatus)DR11 -5.81 dB -26.20 dB 0:19 ?-Part II: Recitative: Pilatus antwortet (Evangelist, Pilatus)DR15 -5.26 dB -26.77 dB 1:39 ?-Part II: Recitative: Auf dass erfullet werde die Schrift (Evangelist, Jesus)DR18 -2.01 dB -25.35 dB 5:28 ?-Part II: Aria: Es ist vollbracht (Alto)--------------------------------------------------------------------------------
Number of tracks: 48Official DR value: DR13
Samplerate: 96000 HzChannels: 2Bits per sample: 24Bitrate: 2410 kbpsCodec: FLAC================================================================================

Скриншоты спектра частот

Доп. информация

При скачивании, если необходимо, переименуйте папку, в которой будет находиться альбомБольшая просьба к скачавшим поддерживать раздачу! Помогайте другим, ведь вам тоже может понадобиться помощь!Не забываем говорить "Спасибо"!Комментарии приветствуются!
[teatrix.ru].t11612.torrent 
Торрент: Зарегистрирован [ 2015-12-07 17:45 ] · E1C2455847865C5C88CA3F6A645B4A2D37CAD54F

Скачать .torrent

Скачать

28 KB

Статус: проверено
Скачан: 0 раз
Размер: 1.94 GB
terms.php



Быстрый ответ

Имя:

      
Для отправки сообщений необходимо включить JavaScript
Показать сообщения:    

Текущее время: 03-Дек 20:42

Часовой пояс: UTC + 3


Вы можете начинать темы
Вы можете отвечать на сообщения
Вы не можете редактировать свои сообщения
Вы не можете удалять свои сообщения
Вы не можете голосовать в опросах
Вы не можете прикреплять файлы к сообщениям
Вы можете скачивать файлы