[TR24][OF] J.S. Bach - Kirchenkantaten BWV 170, BWV 35; Triosonate für Orgel BWV 527; Fantasie und fuge G-moll BWV 542 (Le Banquet Celeste, Damien Guillon, Maude Gratton) - 2012 (Classical)


Статистика раздачи [Обновить пиров]
Размер:  1.25 GB   |    Зарегистрирован:  11 месяцев   |    Скачан:  0 раз

Полного источника не было: Никогда

Личеров:  2  [  0 KB/s  ]   Подробная статистика пиров
 
   
 
 
 

[Цитировать]

J.S. BachCantatas BWV 170 & 35, Trio Sonata BWV 527, Fantasia & Fugue BWV 542Le Banquet Céleste, Damien Guillon, Maude Gratton- Год издания: 2012
Жанр: Classical
Издатель (лейбл): Zig-Zag Territoires | Outhere Music
Продолжительность: 01:13:05
Наличие сканов: Sleeve, Digital Booklet- -
Johann Sebastian Bach (1685-1750)
Cantate «Vergnügte Ruh', Beliebte Seelenlust», BWV 170
01. I. Aria (6:43)
02. II. Recitativo (1:14)
03. III. Aria (7:31)
04. IV. Recitativo (1:07)
05. V. Aria (5:40)
Sonate No. 3 en trio in D Minor, BWV 527
06. I. Andante (5:08)
07. II. Adagio e dolce (6:06)
08. III. Vivace (3:47)
Cantate «Geist und Seele Wird Verwirret», BWV 35
09. I. Concerto (5:25)
10. II. Aria (7:48)
11. III. Recitativo (1:26)
12. IV. Aria (3:18)
13. V. Sinfonia (3:23)
14. VI. Recitativo (1:08)
15. VII. Aria (2:57)
Fantaisie et fugue in G Minor, BWV 542
16. I. Fantaisie (4:49)
17. II. Fugue (5:34)-Le Banquet Céleste
Damien Guillon, Contre-Ténor & Direction
Maude Gratton, Orgue
Recorded: du 23 au 27 Novembre 2011 à L'Église Réformée Du Bouclier, Strasbourg-Контейнер: FLAC (*.flac)
Тип рипа: tracks
Разрядность: 24bit / 88.2kHz
Количество каналов: 2.0-О релизе

It would be hard to conceive of more annoying graphic design that proffered on this release from the Zig Zag Territoires label, identified with a big "ZZT" (no, that's not an electric shock warning). There, however, the list of complaints pretty much ends. This little program of solo cantatas and organ works by countertenor Damien Guillon and his historical instrument group Le Banquet Céleste was beautifully recorded in a small Strasbourg church and it's an intimate gem. Front and center is Guillon's singing, which is sweet, nicely rounded in the high tones, and couched in an attitude of relaxed calm. Organist Maude Gratton offers a trio sonata and a sparkling rendition of the Fantasy and Fugue in G minor, BWV 542, which ends the program on a unique rousing note. The instrumentalists have a sensuous sound and are so well coordinated with Guillon that they seem like extensions of his singing. With the emphasis in recordings of Bach cantatas having long been on the grand conceptions of the charismatic figures who have undertaken complete Bach cycles, a small, unified, and beautifully executed recording like this one comes as a breath of fresh air, and it represents the French way with Bach at its best.

ОтчётыДинамический диапазон

foobar2000 1.2.2 / Dynamic Range Meter 1.1.1log date: 2015-01-09 13:34:30
--------------------------------------------------------------------------------Analyzed: Le Banquet Céleste, Damien Guillon, Maude Gratton / J.S. Bach : Cantates BWV 170 & BWV 35--------------------------------------------------------------------------------
DR Peak RMS Duration Track--------------------------------------------------------------------------------DR14 -0.08 dB -16.75 dB 6:43 ?-Cantate «Vergnügte Ruh', Beliebte Seelenlust», BWV 170: I. AriaDR13 -0.08 dB -17.81 dB 1:14 ?-Cantate «Vergnügte Ruh', Beliebte Seelenlust», BWV 170: II. RecitativoDR14 -0.06 dB -18.68 dB 7:31 ?-Cantate «Vergnügte Ruh', Beliebte Seelenlust», BWV 170: III. AriaDR14 -0.91 dB -17.95 dB 1:07 ?-Cantate «Vergnügte Ruh', Beliebte Seelenlust», BWV 170: IV. RecitativoDR14 -0.24 dB -17.36 dB 5:40 ?-Cantate «Vergnügte Ruh', Beliebte Seelenlust», BWV 170: V. AriaDR11 -6.30 dB -19.91 dB 5:08 ?-Sonate No. 3 en trio in D Minor, BWV 527: I. AndanteDR9 -10.73 dB -23.66 dB 6:06 ?-Sonate No. 3 en trio in D Minor, BWV 527: II. Adagio e dolceDR12 -4.63 dB -18.06 dB 3:47 ?-Sonate No. 3 en trio in D Minor, BWV 527: III. VivaceDR12 -0.10 dB -15.68 dB 5:25 ?-Cantate «Geist und Seele Wird Verwirret», BWV 35: I. ConcertoDR13 -0.06 dB -15.82 dB 7:48 ?-Cantate «Geist und Seele Wird Verwirret», BWV 35: II. AriaDR15 -0.11 dB -19.14 dB 1:26 ?-Cantate «Geist und Seele Wird Verwirret», BWV 35: III. RecitativoDR13 -0.18 dB -18.03 dB 3:18 ?-Cantate «Geist und Seele Wird Verwirret», BWV 35: IV. AriaDR13 -0.14 dB -16.42 dB 3:23 ?-Cantate «Geist und Seele Wird Verwirret», BWV 35: V. SinfoniaDR14 -1.30 dB -19.50 dB 1:08 ?-Cantate «Geist und Seele Wird Verwirret», BWV 35: VI. RecitativoDR14 -0.14 dB -17.51 dB 2:57 ?-Cantate «Geist und Seele Wird Verwirret», BWV 35: VII. AriaDR11 -0.06 dB -14.76 dB 4:49 ?-Fantaisie et fugue in G Minor, BWV 542: I. FantaisieDR12 -0.61 dB -16.68 dB 5:34 ?-Fantaisie et fugue in G Minor, BWV 542: II. Fugue--------------------------------------------------------------------------------
Number of tracks: 17Official DR value: DR13
Samplerate: 88200 HzChannels: 2Bits per sample: 24Bitrate: 2480 kbpsCodec: FLAC================================================================================

Скриншот спектра частот

Доп. информация

При скачивании, если необходимо, переименуйте папку, в которой будет находиться альбомБольшая просьба к скачавшим поддерживать раздачу! Помогайте другим, ведь вам тоже может понадобиться помощь!Не забываем говорить "Спасибо"!Комментарии приветствуются!
[teatrix.ru].t11613.torrent 
Торрент: Зарегистрирован [ 2015-12-07 17:45 ] · BEBFE6C017EE403690B314D9DFFCD9E770180681

Скачать .torrent

Скачать

15 KB

Статус: проверено
Скачан: 0 раз
Размер: 1.25 GB
terms.php



Быстрый ответ

Имя:

      
Для отправки сообщений необходимо включить JavaScript
Показать сообщения:    

Текущее время: 06-Дек 19:05

Часовой пояс: UTC + 3


Вы можете начинать темы
Вы можете отвечать на сообщения
Вы не можете редактировать свои сообщения
Вы не можете удалять свои сообщения
Вы не можете голосовать в опросах
Вы не можете прикреплять файлы к сообщениям
Вы можете скачивать файлы