Джузеппе Верди - Жанна д’Арк / Giuseppe Verdi - Giovanna d’Arco [2015, Opera, HDTVRip]


 

[Цитировать]

Джузеппе Верди - Жанна д’Арк / Giuseppe Verdi - Giovanna d’Arco
Год выпуска: 2015
Лейбл: Teatro alla Scala
Страна-производитель: Италия
Жанр: Opera
Продолжительность: 01:16:59 + 00:11:40 + 01:01:00
Язык: Итальянский
Субтитры: Английские (атракт), немецкие (опера)
Режиссер/Дирижер: Moshe Leiser/Riccardo Chailly
Исполнители:
Carlo VII - Francesco Meli
Giovanna - Anna Netrebko
Giacomo - Devid Cecconi
Talbot - Dmitry Beloselskiy
Delil - Michele Mauro
Описание: https://ru.wikipedia.org/wiki/Жанна_д’Арк_(опера)
Доп. информация: http://www.teatroallascala.org/it/stagione/2015-201...anna-d-arco.html
Качество видео: HDTVRip
Формат/Контейнер: TS
Видео кодек: MPEG2
Аудио кодек: AC3
Видео поток: MPEG Video Version 2, Main@High, 18,4 Мбит/сек, 1920x1080, 16:9, 25 кадров/сек
Аудио поток: AC-3 (Audio Coding 3), 48,0 КГц, 448 Кбит/сек, 6 каналов

Скриншоты

MediaInfo

Общее
Идентификатор : 1 (0x1)
Полное имя : C:\E\Feeds\LaScala\Giovanna.d.Arco\Giovanna.d.Arco.La.Scala.p1.ts
Формат : MPEG-TS
Размер файла : 10,6 Гбайт
Продолжительность : 1 ч. 16 м.
Режим общего битрейта : Постоянный
Общий поток : 19,8 Мбит/сек
Название сети : Arqiva
Видео
Идентификатор : 308 (0x134)
Идентификатор меню : 1 (0x1)
Формат : MPEG Video
Версия формата : Version 2
Профиль формата : Main@High
Параметр BVOP формата : Да
Параметр матрицы формата : По умолчанию
Параметр GOP формата : Variable
Идентификатор кодека : 2
Продолжительность : 1 ч. 16 м.
Вид битрейта : Переменный
Битрейт : 18,4 Мбит/сек
Максимальный битрейт : 19,1 Мбит/сек
Ширина : 1920 пикселей
Высота : 1080 пикселей
Соотношение сторон : 16:9
Описание активного формата : Full frame 16:9 image
Частота кадров : 25,000 кадров/сек
Цветовое пространство : YUV
Субдискретизация насыщенности : 4:2:0
Битовая глубина : 8 бит
Тип развёртки : Чересстрочная
Порядок развёртки : Верхнее поле первое
Метод сжатия : С потерями
Бит/(Пиксели*Кадры) : 0.354
Размер потока : 9,88 Гбайт (93%)
Аудио
Идентификатор : 256 (0x100)
Идентификатор меню : 1 (0x1)
Формат : AC-3
Формат/Информация : Audio Coding 3
Расширение режима : CM (complete main)
Параметр Endianness формата : Big
Идентификатор кодека : 6
Продолжительность : 1 ч. 16 м.
Вид битрейта : Постоянный
Битрейт : 448 Кбит/сек
Каналы : 6 каналов
Расположение каналов : Front: L C R, Side: L R, LFE
Частота : 48,0 КГц
Битовая глубина : 16 бит
Метод сжатия : С потерями
Задержка видео : -320 мс.
Размер потока : 247 Мбайт (2%)
Язык : English
Меню
Идентификатор : 32 (0x20)
Идентификатор меню : 1 (0x1)
Продолжительность : 1 ч. 16 м.
Список : 308 (0x134) (MPEG Video) / 256 (0x100) (AC-3, English)
Язык : / English
Название сервиса : Arqiva HD12
Поставщик сервиса : Arqiva
Тип сервиса : digital television
Максимальный битрейт : 200000000
Общее
Идентификатор : 1 (0x1)
Полное имя : C:\E\Feeds\LaScala\Giovanna.d.Arco\Giovanna.d.Arco.La.Scala.p2.ts
Формат : MPEG-TS
Размер файла : 8,44 Гбайт
Продолжительность : 1 ч. 0 м.
Режим общего битрейта : Постоянный
Общий поток : 19,8 Мбит/сек
Название сети : Arqiva
Видео
Идентификатор : 308 (0x134)
Идентификатор меню : 1 (0x1)
Формат : MPEG Video
Версия формата : Version 2
Профиль формата : Main@High
Параметр BVOP формата : Да
Параметр матрицы формата : По умолчанию
Параметр GOP формата : M=2, N=16
Идентификатор кодека : 2
Продолжительность : 1 ч. 0 м.
Вид битрейта : Переменный
Битрейт : 18,4 Мбит/сек
Максимальный битрейт : 19,1 Мбит/сек
Ширина : 1920 пикселей
Высота : 1080 пикселей
Соотношение сторон : 16:9
Описание активного формата : Full frame 16:9 image
Частота кадров : 25,000 кадров/сек
Цветовое пространство : YUV
Субдискретизация насыщенности : 4:2:0
Битовая глубина : 8 бит
Тип развёртки : Чересстрочная
Порядок развёртки : Верхнее поле первое
Метод сжатия : С потерями
Бит/(Пиксели*Кадры) : 0.354
Размер потока : 7,83 Гбайт (93%)
Аудио
Идентификатор : 256 (0x100)
Идентификатор меню : 1 (0x1)
Формат : AC-3
Формат/Информация : Audio Coding 3
Расширение режима : CM (complete main)
Параметр Endianness формата : Big
Идентификатор кодека : 6
Продолжительность : 1 ч. 0 м.
Вид битрейта : Постоянный
Битрейт : 448 Кбит/сек
Каналы : 6 каналов
Расположение каналов : Front: L C R, Side: L R, LFE
Частота : 48,0 КГц
Битовая глубина : 16 бит
Метод сжатия : С потерями
Задержка видео : -480 мс.
Размер потока : 195 Мбайт (2%)
Язык : English
Меню
Идентификатор : 32 (0x20)
Идентификатор меню : 1 (0x1)
Продолжительность : 1 ч. 0 м.
Список : 308 (0x134) (MPEG Video) / 256 (0x100) (AC-3, English)
Язык : / English
Название сервиса : Arqiva HD12
Поставщик сервиса : Arqiva
Тип сервиса : digital television
Максимальный битрейт : 200000000
Общее
Идентификатор : 1 (0x1)
Полное имя : C:\E\Feeds\LaScala\Giovanna.d.Arco\Giovanna.d.Arco.Interval .La.Scala.ts
Формат : MPEG-TS
Размер файла : 1,62 Гбайт
Продолжительность : 11 м.
Режим общего битрейта : Постоянный
Общий поток : 19,8 Мбит/сек
Название сети : Arqiva
Видео
Идентификатор : 308 (0x134)
Идентификатор меню : 1 (0x1)
Формат : MPEG Video
Версия формата : Version 2
Профиль формата : Main@High
Параметр BVOP формата : Да
Параметр матрицы формата : По умолчанию
Параметр GOP формата : Variable
Идентификатор кодека : 2
Продолжительность : 11 м.
Вид битрейта : Переменный
Битрейт : 18,4 Мбит/сек
Максимальный битрейт : 19,1 Мбит/сек
Ширина : 1920 пикселей
Высота : 1080 пикселей
Соотношение сторон : 16:9
Описание активного формата : Full frame 16:9 image
Частота кадров : 25,000 кадров/сек
Цветовое пространство : YUV
Субдискретизация насыщенности : 4:2:0
Битовая глубина : 8 бит
Тип развёртки : Чересстрочная
Порядок развёртки : Верхнее поле первое
Метод сжатия : С потерями
Бит/(Пиксели*Кадры) : 0.354
Размер потока : 1,50 Гбайт (93%)
Аудио
Идентификатор : 256 (0x100)
Идентификатор меню : 1 (0x1)
Формат : AC-3
Формат/Информация : Audio Coding 3
Расширение режима : CM (complete main)
Параметр Endianness формата : Big
Идентификатор кодека : 6
Продолжительность : 11 м.
Вид битрейта : Постоянный
Битрейт : 448 Кбит/сек
Каналы : 6 каналов
Расположение каналов : Front: L C R, Side: L R, LFE
Частота : 48,0 КГц
Битовая глубина : 16 бит
Метод сжатия : С потерями
Задержка видео : -200 мс.
Размер потока : 37,4 Мбайт (2%)
Язык : English
Меню
Идентификатор : 32 (0x20)
Идентификатор меню : 1 (0x1)
Продолжительность : 11 м.
Список : 308 (0x134) (MPEG Video) / 256 (0x100) (AC-3, English)
Язык : / English
Название сервиса : Arqiva HD12
Поставщик сервиса : Arqiva
Тип сервиса : digital television
Максимальный битрейт : 200000000



Показать сообщения:    

Текущее время: 07-Дек 13:40

Часовой пояс: UTC + 3


Вы не можете начинать темы
Вы не можете отвечать на сообщения
Вы не можете редактировать свои сообщения
Вы не можете удалять свои сообщения
Вы не можете голосовать в опросах
Вы не можете прикреплять файлы к сообщениям
Вы не можете скачивать файлы