(Classical) Mozart - Piano Sonatas K576, K283, K332, K570, K330, K333, K545, K282 - Marc-Andre Hamelin - 2015, FLAC (image+.cue) lossless


 

[Цитировать]

Mozart - Piano Sonatas K576, K283, K332, K570, K330, K333, K545, K282 - Marc-André Hamelin
Жанр: Classical
Страна-производитель диска: UK
Год издания диска: 2015
Издатель (лейбл): Hyperion
Номер по каталогу: CDA68029
Дата записи: 2013
Аудиокодек: FLAC
Тип рипа: image+.cue
Битрейт аудио: lossless
Продолжительность: 154:33
Источник: собственный рип
Наличие сканов в содержимом раздачи: да
Треклист:
Wolfgang Amadeus Mozart
Piano Sonatas

CD1

[1]-[3] Piano Sonata in D major, K576
[4]-[6] Piano Sonata in G major, K283
[7]-[9] Piano Sonata in F major, K332
[10]-[12] Piano Sonata in B flat major, K570
[13] Rondo in D major, K485
[14] Gigue in G major, K574

CD2

[1]-[3] Piano Sonata in C major, K330
[4]-[6] Piano Sonata in B flat major, K333
[7]-[9] Piano Sonata in C major, K545
[10]-[12] Piano Sonata in E flat major, K282
[13] Rondo in A minor, K511
[14] Fantasia in D minor, K397
Исполнители:
Marc-André Hamelin piano

Лог создания рипа: CD1

Exact Audio Copy V1.1 from 23. June 2015
EAC extraction logfile from 1. December 2015, 23:11
Marc-André Hamelin / Mozart - Piano Sonatas - CD1
Used drive : HL-DT-STDVDRAM GU70N Adapter: 1 ID: 0
Read mode : SecureUtilize accurate stream : YesDefeat audio cache : YesMake use of C2 pointers : No
Read offset correction : 48Overread into Lead-In and Lead-Out : NoFill up missing offset samples with silence : YesDelete leading and trailing silent blocks : NoNull samples used in CRC calculations : YesUsed interface : Native Win32 interface for Win NT & 2000
Used output format : User Defined EncoderSelected bitrate : 128 kBit/sQuality : HighAdd ID3 tag : NoCommand line compressor : C:\Program Files (x86)\Exact Audio Copy\Flac\flac.exeAdditional command line options : -V -8 -T "Date=%year%" -T "Genre=%genre%" %source%
TOC of the extracted CD
Track | Start | Length | Start sector | End sector --------------------------------------------------------- 1 | 0:00.00 | 4:25.54 | 0 | 19928 2 | 4:25.54 | 5:18.72 | 19929 | 43850 3 | 9:44.51 | 4:03.70 | 43851 | 62145 4 | 13:48.46 | 5:19.01 | 62146 | 86071 5 | 19:07.47 | 5:14.27 | 86072 | 109648 6 | 24:21.74 | 6:06.11 | 109649 | 137109 7 | 30:28.10 | 6:24.23 | 137110 | 165932 8 | 36:52.33 | 5:52.60 | 165933 | 192392 9 | 42:45.18 | 6:22.06 | 192393 | 221048 10 | 49:07.24 | 5:36.31 | 221049 | 246279 11 | 54:43.55 | 8:44.17 | 246280 | 285596 12 | 63:27.72 | 4:08.23 | 285597 | 304219 13 | 67:36.20 | 5:56.32 | 304220 | 330951 14 | 73:32.52 | 1:25.23 | 330952 | 337349
Range status and errors
Selected range
Filename C:\temp\CDA68029 - Mozart - Piano Sonatas - Hamelin\CD1\Mozart - Piano Sonatas - CD1.wav
Peak level 94.7 % Extraction speed 2.2 X Range quality 100.0 % Test CRC 12755727 Copy CRC 12755727 Copy OK
No errors occurred
AccurateRip summary
Track 1 accurately ripped (confidence 5) [E3D4D0E1] (AR v2)Track 2 accurately ripped (confidence 5) [F29B3203] (AR v2)Track 3 accurately ripped (confidence 5) [11868318] (AR v2)Track 4 accurately ripped (confidence 5) [CC98144F] (AR v2)Track 5 accurately ripped (confidence 5) [0C12BAB3] (AR v2)Track 6 accurately ripped (confidence 5) [3475EFE8] (AR v2)Track 7 accurately ripped (confidence 5) [FFF0D7A1] (AR v2)Track 8 accurately ripped (confidence 5) [30E16378] (AR v2)Track 9 accurately ripped (confidence 5) [2B273C6C] (AR v2)Track 10 accurately ripped (confidence 5) [353C1183] (AR v2)Track 11 accurately ripped (confidence 5) [CDC8D8AF] (AR v2)Track 12 accurately ripped (confidence 5) [8C691BB8] (AR v2)Track 13 accurately ripped (confidence 5) [5184E130] (AR v2)Track 14 accurately ripped (confidence 5) [9F23991F] (AR v2)
All tracks accurately ripped
End of status report
==== Log checksum 015FAC5EC773943C13E138AE7C5D24488EC5DA7FD55A00C91DD13E115FD1713B ====

Лог создания рипа: CD2

Exact Audio Copy V1.1 from 23. June 2015
EAC extraction logfile from 2. December 2015, 1:34
Marc-André Hamelin / Mozart - Piano Sonatas - CD2
Used drive : HL-DT-STDVDRAM GU70N Adapter: 1 ID: 0
Read mode : SecureUtilize accurate stream : YesDefeat audio cache : YesMake use of C2 pointers : No
Read offset correction : 48Overread into Lead-In and Lead-Out : NoFill up missing offset samples with silence : YesDelete leading and trailing silent blocks : NoNull samples used in CRC calculations : YesUsed interface : Native Win32 interface for Win NT & 2000
Used output format : User Defined EncoderSelected bitrate : 128 kBit/sQuality : HighAdd ID3 tag : NoCommand line compressor : C:\Program Files (x86)\Exact Audio Copy\Flac\flac.exeAdditional command line options : -V -8 -T "Date=%year%" -T "Genre=%genre%" %source%
TOC of the extracted CD
Track | Start | Length | Start sector | End sector --------------------------------------------------------- 1 | 0:00.00 | 6:35.52 | 0 | 29676 2 | 6:35.52 | 7:37.38 | 29677 | 63989 3 | 14:13.15 | 5:15.16 | 63990 | 87630 4 | 19:28.31 | 7:06.15 | 87631 | 119595 5 | 26:34.46 | 6:39.30 | 119596 | 149550 6 | 33:14.01 | 6:25.25 | 149551 | 178450 7 | 39:39.26 | 3:12.74 | 178451 | 192924 8 | 42:52.25 | 3:45.02 | 192925 | 209801 9 | 46:37.27 | 1:35.39 | 209802 | 216965 10 | 48:12.66 | 5:32.29 | 216966 | 241894 11 | 53:45.20 | 4:33.60 | 241895 | 262429 12 | 58:19.05 | 3:05.54 | 262430 | 276358 13 | 61:24.59 | 11:11.38 | 276359 | 326721 14 | 72:36.22 | 6:58.53 | 326722 | 358124
Range status and errors
Selected range
Filename C:\temp\CDA68029 - Mozart - Piano Sonatas - Hamelin\CD2\Mozart - Piano Sonatas - CD2.wav
Peak level 92.3 % Extraction speed 2.3 X Range quality 100.0 % Test CRC 91FC95FE Copy CRC 91FC95FE Copy OK
No errors occurred
AccurateRip summary
Track 1 accurately ripped (confidence 5) [0AD8F7D9] (AR v2)Track 2 accurately ripped (confidence 5) [D1236824] (AR v2)Track 3 accurately ripped (confidence 5) [6366A439] (AR v2)Track 4 accurately ripped (confidence 5) [FEAB5A3B] (AR v2)Track 5 accurately ripped (confidence 5) [386038C6] (AR v2)Track 6 accurately ripped (confidence 5) [CA129A06] (AR v2)Track 7 accurately ripped (confidence 5) [8FF960A6] (AR v2)Track 8 accurately ripped (confidence 5) [CA4A10E3] (AR v2)Track 9 accurately ripped (confidence 5) [FC5C6100] (AR v2)Track 10 accurately ripped (confidence 5) [2E94D912] (AR v2)Track 11 accurately ripped (confidence 5) [163F8FFF] (AR v2)Track 12 accurately ripped (confidence 5) [1AC5E4F4] (AR v2)Track 13 accurately ripped (confidence 5) [A79890DC] (AR v2)Track 14 accurately ripped (confidence 5) [E414CDAA] (AR v2)
All tracks accurately ripped
End of status report
==== Log checksum EA9D794D5BBCB222CE9D64BE02B2F3755FB3190CC920B461411B9F55F63A06CE ====



Показать сообщения:    

Текущее время: 05-Дек 13:33

Часовой пояс: UTC + 3


Вы не можете начинать темы
Вы не можете отвечать на сообщения
Вы не можете редактировать свои сообщения
Вы не можете удалять свои сообщения
Вы не можете голосовать в опросах
Вы не можете прикреплять файлы к сообщениям
Вы не можете скачивать файлы